<?xml version="1.0" standalone="no"?>
<!DOCTYPE svg PUBLIC "-//W3C//DTD SVG 1.1//EN" "http://www.w3.org/Graphics/SVG/1.1/DTD/svg11.dtd" >
<svg xmlns="http://www.w3.org/2000/svg">
<metadata></metadata>
<defs>
<font id="boundless" horiz-adv-x="1720" >
<font-face units-per-em="2048" ascent="1536" descent="-512" />
<missing-glyph horiz-adv-x="1024" />
<glyph horiz-adv-x="0" />
<glyph unicode=" "  horiz-adv-x="1024" />
<glyph unicode="&#x09;" horiz-adv-x="1024" />
<glyph unicode="&#xa0;" horiz-adv-x="1024" />
<glyph unicode="A" horiz-adv-x="1705" />
<glyph unicode="&#xe000;" horiz-adv-x="1024" d="M0 0v0v0v0v0z" />
<glyph unicode="&#xf000;" d="M1739 1501q49 -31 86 -94q33 -53 56.5 -149.5t19.5 -245.5q-4 -164 -64 -318q-27 -66 -67.5 -135.5t-101 -136t-144.5 -128t-197 -108.5q-113 -49 -210 -71.5t-179 -27.5t-149.5 4t-120.5 26q-127 39 -209 123q-27 -25 -51 -62q-23 -31 -49.5 -75t-49.5 -101 q-45 0 -82 12q-31 10 -56.5 35t-25.5 72q12 33 39 69q23 33 66 76t115 96q-41 98 -46 207q-2 45 5.5 98.5t27 111t55 117.5t91.5 122q84 92 180 143t189.5 76t179.5 29t151 0q35 -2 84 -6.5t84 0.5q51 2 105.5 13t104.5 36.5t92 71.5t71 120zM1233 862q135 16 209 49t108 68 q39 39 47 86q-18 -35 -71 -66q-45 -27 -131 -50t-234 -31q-160 -10 -272.5 -64.5t-181.5 -116.5q-82 -72 -134 -162q0 -20 9 -36q8 -14 26.5 -27.5t57.5 -19.5q45 92 122 167q66 66 175.5 125.5t269.5 77.5z" />
<glyph unicode="&#xf001;" d="M506 1051q63 0 123.5 -8.5t118.5 -24.5v-8q0 -68 47 -115t114 -47q63 0 111 43q33 -23 62.5 -47.5t58.5 -50.5q-8 -14 -15 -29h-86v-109h86q16 -47 58.5 -77.5t95.5 -30.5q8 0 14 1t15 1q49 -113 59 -240h-405v74h-105v-74h-352v346h88v109h-88v287zM858 655h105v109 h-105v-109zM858 465h105v108h-105v-108zM674 764v-109h104v109h-104zM1794 1503q23 0 38 -16.5t15 -38.5v-1155l-45 35l-106 80q-27 20 -66 20q-23 0 -49 -10q-29 -14 -44 -41t-15 -58v-10h-43q-6 78 -24.5 153t-51.5 142q39 45 39 105q0 68 -47 115.5t-115 47.5 q-29 0 -55 -10q-74 74 -154 127q0 4 1 10.5t1 10.5q0 68 -48 114.5t-116 46.5q-72 0 -118 -53q-139 41 -285 41v29h8q66 0 96 59q14 29 11 59.5t-21 55.5l-88 119l-16 22h1298zM909 956q-25 0 -39 19q-14 14 -14 35q0 23 15.5 38t37.5 15q23 0 38.5 -15.5t15.5 -37.5 q0 -23 -15.5 -38.5t-38.5 -15.5zM1737 240l106 -78l-57 -43l-156 -115v115h-160h-110h-959h-6h-80v911v111l2 149h-118l157 213l15 -18l55 -74l90 -121h-119l-2 -137v-111v-278v-109v-454h975h109h151v118zM1333 709q0 -23 -15 -38.5t-38 -15.5t-38 15.5t-15 38.5t15 39 t38 16t38 -16t15 -39z" />
<glyph unicode="&#xf002;" d="M1714 743q20 -25 8 -52t-47 -27q-16 0 -28.5 -6.5t-22.5 -12.5q-10 -8 -18 -16q-12 -14 -12.5 -28.5t3.5 -25.5q6 -12 15 -24q6 -10 4 -12l-4 -4q-10 -12 -27 -25q-8 -6 -16 -10q8 -6 20 -19q4 -6 8 -10q4 -20 -2 -27q-4 -4 -8 -2q-16 -10 -20 -25.5t-6 -31.5 q-2 -18 2 -39q0 -6 2 -14q0 -8 1 -18.5t-3 -20.5q-10 -37 -47 -54.5t-81 -21.5t-87 2t-68 12t-42 0t-28.5 -19t-16.5 -31.5t-5 -37.5q-2 -25 -7 -39t-13.5 -24t-16.5 -20.5t-14 -26.5q-8 -16 -10.5 -36l-4.5 -36q-2 -20 0 -39l-680 357q14 10 23.5 55t11.5 105.5t-5 125 t-26 113.5q-2 6 -9 18.5t-14 25.5t-14.5 24.5t-9.5 17.5q-35 61 -52 135t-23 117q-4 18 -3 49t3 43q6 68 22 119t44 94t69 81t94 79q57 43 132 67.5t158 32.5t169 2t166 -20t139 -45t101 -69t68.5 -76t39.5 -68q14 -31 26.5 -58.5t22.5 -50.5q10 -25 20 -47q12 -29 14.5 -44 t0.5 -26q-4 -10 -11 -16q-6 -6 -13 -18.5t-11 -28t-5 -33.5t9 -33q10 -16 28.5 -44.5t39 -60.5t39 -61t28.5 -41zM1305 1022q6 8 16 22.5t14 35t0 44t-24 47.5l-2 5v2q0 2 2 13t-2 21q-8 12 -25 15q-4 4 -8 0l-6 4l-4 2q2 8 12 8q-4 12 -11 28.5t-16.5 32t-19.5 25.5t-21 10 q-6 0 -14 -4q0 -2 -1 -5t1 -7l-6 -2l-6 -2q-2 14 0 20q-6 8 -25.5 24.5t-44.5 16.5q-6 0 -18 -4l-6 -2l-3 8q-4 6 -12 15q-8 6 -23.5 11t-41.5 5q-10 0 -22.5 -1t-26.5 -3l-3 -2q-2 0 -2 -1t-2 -1q-10 -4 -12 -12q-2 -4 -2 -13q0 -6 2 -8l-6 -2l-8 -2q-6 12 2 31q4 10 14 14 q-2 0 -3 1t-3 1q-6 0 -12 -2t-15 -6l-2 -2h-2h-18q-8 0 -18.5 -1t-22.5 -1q-2 0 -10 -4t-17.5 -7.5t-21.5 -5.5q-4 -2 -8 -14v-2q-2 -14 2 -29l-9 -2l-6 -2q0 4 -2 18.5t4 30.5q-14 -4 -34.5 -11t-30.5 -23l-6 -9h-2q-4 -8 -5 -22h-6h-8q2 4 3 14t5 19q-4 0 -14 -6.5 t-29 -22.5q-4 -6 -18 -20.5t-25 -18.5q0 -2 -1 -3t-1 -3q10 -2 23.5 -8t17.5 -23q4 -18 -3 -28.5t-13 -14.5l-2 6l-4 7q2 0 8 6t2 20q-4 12 -15.5 16.5t-17.5 4.5h-4q-2 0 -12 -5.5t-19 -31.5l-4 -8t-9 -20.5t-5 -22.5v-2l-2 -3l-4 -8q-2 -8 0 -20l2 -4q0 -8 8 -17l-4 -6 l-4 -4q-8 6 -12 18q-8 -8 -15.5 -26.5t2.5 -59.5v-2v-2q-2 -12 -2 -24q0 -10 2 -21.5t8 -19.5l9 -4v-6v-7q-4 0 -4 3q-2 -10 0 -28t24 -32q4 2 6 5t4 5l6 -4l7 -4q-2 0 -5.5 -4t-9.5 -8q4 -4 10.5 -7t16.5 -7l4 4q2 0 4 2l8 4l8 4q10 8 23 10q20 8 31 8q6 2 13 5.5t7 7.5 l2 10v6l4 -4l7 -6l7 -8q7 -7 19 -15t26.5 -14t28.5 -6q2 0 3.5 1t3.5 1q-35 25 -35 55v4v6q0 4 2 6q2 10 7 17.5l9 13.5q6 8 12 12l5 -6l4 -4l-2 -4q-4 -2 -10.5 -10t-10.5 -19q-2 -2 -2 -6t-2 -6v-4q0 -23 37 -49l2 -2l4 -2q6 -6 14 -10t19.5 -7.5t27.5 -3.5h11h2h2 q2 0 3 -1t3 -1q12 -4 41 -9t55 -5q12 0 25 4q14 4 21 13.5t12 19.5q4 10 6 24v9h6q2 0 11 1t18 11q10 10 10 33l-2 6q0 4 -2 6l6 4l6 4q4 -8 4 -12q6 0 14.5 2t12.5 6l4 4l6 -6q2 -4 6 -6q6 -6 21 -6q6 0 18 4q2 2 8 2h8q74 0 86 37q-4 4 -4 8q-10 12 -22 12h-8l-2 12 q8 4 21.5 0t23.5 -22zM674 897q-20 -4 -36.5 -11t-27.5 -16q2 -8 12.5 -27.5t28 -40t42 -35.5t59.5 -15h6q68 4 98 39q16 18 19.5 35.5t3.5 27.5q-31 0 -48.5 8t-23.5 12q-6 -2 -21 -2q-27 0 -50 14.5t-34 24.5q-6 -8 -16 -11t-12 -3zM1165 1233q-8 0 -21.5 -1t-23.5 -11 q-6 -6 -10 -25v-4v-12l-10 6l-4 2q-10 4 -25 0q-25 -6 -39 -43q-4 -4 -4 -8l-6 2l-8 2q20 49 53 61q10 4 17.5 3t13.5 -3q0 14 14 29q14 12 30.5 14t26.5 2q6 29 25 39q12 6 27 2q8 -2 14 -6l-6 -10h-2q-4 2 -12.5 4t-14.5 -2q-12 -6 -16 -29q-2 -2 -2 -6l-2 -6h-6h-9z M938 1305l-4 4q18 23 42.5 27.5t43.5 2.5q6 0 11 -1t9 -1q2 8 9 17q8 8 12 10t6 4l2 -6l4 -6q-6 -4 -10 -8q-10 -6 -10 -19l-2 -8l-7 2q-2 0 -22.5 3t-42.5 -5l-18 -8q-8 -2 -17 -15zM836 1333q-14 6 -15 21h8h7q0 -10 22 -11q10 0 20.5 -1t18.5 -9q8 -12 8 -24 q8 -2 24.5 -7.5t26.5 -21.5q18 -20 15 -51q-2 -29 -19 -39q-8 -4 -15 -4h-11q-4 -8 -12.5 -20.5t-24.5 -14.5v8v6q10 0 18 17q4 8 6 14l5 8l6 -4q2 -2 6 -2q10 0 14 4q12 6 14 27q2 27 -12 43q-10 12 -31 20q-8 4 -18 4l-6 2v7q0 14 -4 18t-12.5 5t-16.5 3q-16 0 -22 2z M874 1116q-20 -8 -40 8q-6 -2 -18.5 -3t-24.5 5q-18 8 -27 33q-14 -4 -33 8q-16 14 -16 50h8l6 -3v-4q0 -23 10 -32q8 -6 19 -7q4 0 8 3h6l2 -7q8 -20 23 -28q12 -6 23 -3t14 3l4 2l2 -4q12 -10 24 -11q8 0 10 2l5 5l14 12l-4 -21v-4q0 -2 -1 -4t1 -6l4 -4l8 -4h11.5t13.5 2 q37 10 61 -8q18 -14 21.5 -35t3.5 -23h-8h-7v6q0 6 -4 18.5t-14 22.5q-18 12 -49 7q-2 -2 -6 -2q-31 -4 -41 6q-4 4 -5.5 10t-3.5 10zM1016 1014q18 10 36.5 3t20.5 -7l-6 -13q0 2 -2 2q-4 0 -4 2q-8 2 -19.5 3.5t-21.5 -3.5q-8 -6 -14 -18q-2 -4 -3.5 -8t-3.5 -10l-2 -7h-6 q-2 0 -21.5 -1t-35.5 -23l-6 -6l-4 6q-4 2 -18.5 10t-35.5 -8q0 -2 -2 -2l-4 4l-6 6q16 14 31.5 14t25.5 -4l13 -6q10 12 30 21h3q10 4 16 4h10q0 2 1 3t1 3q11 27 27 35zM1184 1104q16 23 33.5 33t31 14t23.5 4h10l-2 -14q0 2 -6 2q-10 0 -33.5 -7.5t-46.5 -39.5 q-6 -10 -7 -17.5t-3 -15.5v-4q0 -8 -6 -15q-4 -2 -6.5 -2t-6.5 -2h-4q-6 0 -8 -2q-12 -6 -12 -18q0 -4 -1 -4t-1 -4h-6h-7q-4 25 21 39q4 2 6 2t6 2q8 0 12 2v8q0 6 2.5 16.5t10.5 22.5zM606 1006l2 -7q0 -2 -2 -2q-2 -2 -3 -2t-3 -2q-2 -4 -6 -16q-2 -6 -2 -21h-6h-6 q-2 4 -1 7.5t1 7.5q-14 4 -23 0l-4 4l-4 6q16 10 33 2q2 8 6 13l8 10q4 4 8 6zM745 1075q10 6 19.5 4t11.5 -2l-6 -12h-10l-8 -4q-10 -6 -11 -27q0 -16 -6 -22t-12 -11q-4 -2 -14 -2q-16 0 -30.5 7.5t-23.5 13.5l7 6l4 4l2 -2q10 -6 24.5 -12t24.5 -2q4 2 7 5t5 17 q0 4 1 9.5t1 9.5q8 16 14 20z" />
<glyph unicode="&#xf003;" d="M1098 1499q0 -4 2 -4q-6 4 -11.5 5t-9.5 1h-4q-16 0 -23.5 2t-9.5 4l-2 4q0 4 -8 9q4 0 17 -4q27 -4 36 -8.5t11 -6.5zM1026 1505q0 -4 2 -6q4 -4 6 -4h-18h-8h-4v8q4 2 11 3t11 -1zM1079 1487q8 0 21 -12q2 -6 8 -7q-10 0 -18 7q-10 6 -25 12h10h4zM987 1485q6 -6 12 0 q0 -2 5 -15q2 -4 2 -8q2 -8 10 -14l-2 -2q-10 -4 -13 -8q-2 -2 -2 -8q-4 4 -11 8t-21 4q-23 2 -43.5 11t-24.5 15q2 0 4 1t4 1q6 2 14.5 5.5t18.5 9.5q2 0 4 2q2 0 5 1t7 1q6 0 13.5 -1t17.5 -3zM334 387q-117 188 -117 412q0 162 61.5 305t168 249.5t250 168t304.5 61.5 q162 0 305.5 -61.5t250 -168t168 -249.5t61.5 -305q0 -111 -30 -214.5t-87 -197.5h-2q4 8 8 25l2 10q14 14 28.5 40.5t18.5 74.5v4q0 31 -16 53q2 14 2 28.5v30.5q0 47 -22.5 87t-63.5 61q-8 4 -27 10q-25 12 -59 18h-33h-8q-14 0 -29.5 -2t-31.5 -6q-4 0 -6.5 -1t-6.5 -1 q-4 -2 -12 -2q-6 0 -6 2l-4 2q-8 10 -15.5 18.5t-19.5 14.5q-4 2 -7 2t-7 2q-4 0 -8.5 1t-14.5 9q-29 20 -72 4v11l3 8h-9q-2 2 -8 3t-22 5h-4q-8 2 -25 2q-20 0 -29.5 -4t-11.5 -4l-2 -2v-4q-2 0 -2 -2q-4 4 -12.5 7t-18.5 5q-16 10 -36.5 15.5t-32.5 5.5q-14 2 -24.5 2 h-14.5h-9h-22t-25 -5q-2 2 -2 5l-2 2q0 12 -30 12q-14 0 -35 -4v31q6 6 14 12q16 12 8 35q-4 20 -24 10q-10 -4 -20.5 -15.5t-18.5 -21.5l-6 -6q-2 -2 -14.5 -5t-24.5 -3q-6 0 -6 2q-8 2 -25.5 22.5t-13.5 42.5q2 6 4 12.5t4 10.5q4 10 6 20t-10 23h2l2 2q8 4 19.5 12 t19.5 16q4 6 22 3q4 -2 9.5 -2.5t11.5 -2.5q20 0 30 11l13 6q35 8 61 -12q6 -6 12.5 -8.5t10.5 -4.5v-4q-4 -14 0 -28.5t20 -24.5q12 -6 17 -6q10 0 13 9t3 19q0 33 -27 54q-2 0 -2 2t2 4t4 6l7 6q2 2 9 12.5t18 21.5l21.5 21.5t18.5 14.5q4 0 6 8t-6 22q-2 2 -2 7q0 2 -2 2 q2 0 2 1t2 1l2 2h4l6 -6q2 0 3.5 -1t3.5 -1q8 0 10 6t4 10v4q4 4 16 4h2h6l3 4q2 4 -0.5 8.5t-4.5 8.5l-6 6q0 2 5.5 5t21.5 7q6 2 18 2q14 0 21 6q2 8 -2 17q-14 20 -15 32v4q4 -4 11 -4q10 -4 17 -1t11 8v-9q0 -10 7.5 -14t13.5 -6q4 0 8 -4q12 -6 25 6l4 4q2 0 5 3t1 7 q0 6 -10 6q-4 2 -6.5 2t-6.5 2q-16 12 -16 27v4q0 2 -2 4q-2 4 -12 4q-8 -4 -17 2l-20 11q-12 6 -27.5 15t-19.5 17l-4 3h-5q-6 0 -10 -3q2 4 1 10.5t-7 22.5q0 2 -1 2t-1 2q-8 12 -59 25q-31 6 -52 6q-10 0 -18 -1t-16 -3q-4 0 -8.5 -1t-8.5 -1h-4q-10 0 -42 -2t-73 -9.5 t-87 -23.5t-87 -43q-29 -20 -43 -49t-20 -45q-2 -2 -2 -6l-18.5 -18.5t-29 -37t-21.5 -51t3 -61.5v-2q2 -2 4 -8q2 -4 2 -11.5t2 -17.5q2 -25 16.5 -66t31.5 -57l2 -2l8 2l2 2q2 4 3 10t-1 23l-2 2v2q-6 6 -14.5 16.5t-10.5 14.5t-2 22.5t2 28.5q4 -4 6 -8v-2q0 -2 -1 -3.5 t-1 -3.5q-8 -20 13 -34q6 -4 22.5 -36t14.5 -69q-2 -6 2 -13t16 -11q6 -2 25.5 -18.5t37.5 -33.5q14 -10 35 -10q31 0 41 21h2q4 -6 15 -9q8 -4 14 -8t10 -12q0 -2 1 -10t18 -15q-80 -53 -84 -153q-2 -23 -1 -43.5t3 -40.5q-20 -27 -21 -62v-4q4 -57 22.5 -89t37.5 -48v-10 l2 -8q2 -18 12 -37q-14 -20 -49 -41l-12 6q-29 14 -48.5 24.5t-29.5 22.5q4 8 8 25v10q16 14 30.5 40.5t16.5 74.5v4q0 33 -14 53q0 14 1 28.5t1 30.5q0 47 -22.5 87t-63.5 61q-4 2 -11.5 5t-17.5 5q-14 10 -29.5 13t-29.5 5h-33h-6q-27 0 -62 -8t-66.5 -27.5t-54 -53 t-24.5 -85.5q-4 -33 0 -63q-14 -25 -14 -51v-4q4 -47 17 -74t30 -41v-10q2 -6 4 -12.5t4 -12.5zM678 293q-14 -8 -29 -14q-94 -51 -127 -113l-2 -2q-10 -23 -11 -40.5t-1 -23.5v-8h-146.5t-54.5 -2h-114q-4 0 -5.5 1t-3.5 1l-6 6q-2 4 -4 11.5t-2 17.5v41q0 14 4 25 q4 8 20.5 24t55.5 37q10 4 18.5 9t16.5 9q25 12 46 22.5t38 24.5q18 16 30.5 32t18.5 38l2 4l-4 4l-8 9q-8 8 -11 20l-4 43h-4q-2 0 -18.5 11.5t-20.5 60.5q0 4 2 8q4 8 13 8h10l-4 8q0 2 -4 24.5t-2 63.5q2 37 22.5 58.5t45 31t45 11.5t22.5 2h4h10t16 -2q8 0 15.5 -2 t11.5 -4l6 -7q2 -2 2 -4l6 -14l9 12q0 2 2 2q4 0 8 -4q45 -23 45 -80q0 -20 -1 -36.5t-3 -26.5q-2 -14 -2 -25v-8h8q10 0 11 -7t1 -9q-2 -25 -8 -39.5t-12 -22.5q-8 -8 -17 -10h-6l-4 -43q-4 -14 -10 -21.5t-8 -7.5l-4 -4l2 -4q12 -39 37.5 -59.5t56.5 -36.5zM1825 193 q4 -10 4 -25v-41q0 -20 -4 -29q-4 -4 -8 -6q0 -2 -2 -2h-5l-116 2v-2q-10 2 -101 2h-98v6q0 10 -2 26.5t-12 39.5l-2 2q-20 41 -72 80q-14 10 -27.5 17t-27.5 16q-6 4 -13.5 7t-13.5 7q31 16 55.5 36.5t36.5 59.5l2 4l-4 4l-8 9q-8 8 -8 20l-4 43h-6q-2 0 -17.5 11.5 t-19.5 60.5q0 4 2 8q4 8 10 8h10l-2 8q0 2 -5 24.5t-3 63.5q2 33 17.5 52.5t37 31t42 15.5t32.5 4h8h4h9.5t15.5 -2q6 0 15 -1t14 -5l6 -7q2 -2 2 -4l4 -14l8 12l2 2q2 0 10 -4q20 -10 32.5 -31.5t12.5 -48.5q0 -10 -1 -18t-1 -19q-2 -12 -2 -21t-2 -15q-2 -8 -2 -15v-8h8 q4 0 5 -1t4 -1q4 -4 4 -8v-6q-4 -49 -19.5 -60.5t-17.5 -11.5h-6l-4 -43q-2 -12 -11 -20q-4 -4 -6 -9l-4 -4l2 -4q6 -23 18.5 -38t28.5 -32q18 -14 39 -24t45 -23q10 -4 17.5 -9t17.5 -9q37 -18 54.5 -34.5t21.5 -26.5zM1415 127q4 -10 4 -17.5v-11.5v-49q0 -16 -2 -22 q0 -10 -4 -15q-2 -6 -10 -10q-2 -2 -4 -2h-4h-787h-6q-2 0 -2 2q-8 4 -12 10q-2 2 -2 4t-1 4.5t-1 6.5t-1 10t-1 12v49v11.5t4 17.5q2 0 2 4q8 14 28.5 35.5t67.5 46.5q12 6 23.5 11t21.5 12q16 6 35 16q8 4 15 8t16 8q8 4 15 9.5t13 9.5q53 39 72 92l2 6l-4 4q-6 2 -10 8 q-8 8 -13 29l-6 53h-4l-7 2t-16.5 11.5t-16.5 28t-9 50.5q0 4 2 11q4 12 16 12h11l-4 10q-2 14 -5 31q-2 14 -4 33.5t0 46.5q2 78 86 112q10 4 22.5 7.5t25.5 7.5q20 4 28 4h12h7h12t20 -2q20 0 35 -10q10 -6 10 -15l7 -14l8 14l4 4q4 0 6 -2t4 -2l2 -2q2 0 4 -2q2 0 2 -1 t2 -1q23 -16 37.5 -42t14.5 -56q0 -53 -5.5 -82t-5.5 -31v-8h9q12 0 15 -10.5t3 -12.5q-2 -33 -10 -51t-16.5 -27.5t-15.5 -11.5l-7 -2h-6l-4 -53q-4 -16 -13 -27q-10 -14 -10 -12l-4 -2v-6q18 -51 70 -90l2 -2q8 -4 15 -9.5t13 -9.5q8 -4 15.5 -8t17.5 -8q8 -4 15.5 -8 t15.5 -8q12 -6 23.5 -11.5t23.5 -11.5q8 -4 13 -7t11 -7q35 -20 51.5 -38t22.5 -32v-2z" />
<glyph unicode="&#xf004;" d="M1024 1583q172 0 323.5 -65.5t264 -179t178 -265t65.5 -323.5t-65.5 -324t-178 -264.5t-264 -178t-323.5 -65.5t-323.5 65.5t-264 178t-178 264.5t-65.5 324t65.5 323.5t178 265t264 179t323.5 65.5zM1589 297q76 94 118 209t42 244q0 72 -13.5 137t-35.5 127 q-16 -4 -37 -4q-12 0 -21 2l-2 -4l-12 -2h-4h-12q-20 -4 -37 12q-2 0 -4 1t-6 1q-4 -2 -15 -2q-14 0 -34.5 -1t-32.5 -5q-10 -2 -39 -2q-10 0 -34 1t-40 9q-2 0 -8 1t-27 1h-49q-23 -2 -42 -2h-36q-23 2 -30 6q-4 -16 -9.5 -40.5t-15.5 -51.5q-10 -31 -8 -49.5t6 -26.5 q2 -6 4 -15t0 -20q4 -4 6 -8q6 -8 19 -20q8 -10 15 -18.5t15 -16.5l4 -2q16 -14 56.5 -54t75.5 -106q4 -4 21 -22.5t30 -32.5q10 -6 48 -36t68 -87q16 -27 35 -59.5t39 -61.5q0 -2 2 -2zM1677 1063q-51 106 -125 182l-8 -4v-4l-4 -6l-8 -4t-10 -6q-18 -14 -39 -9 q-2 -2 -5 -2t-5 -4q-2 0 -15 -8q-10 -8 -25.5 -18.5t-25.5 -20.5q-14 -10 -37.5 -23.5t-46.5 -17.5q-6 0 -23 -10q25 0 37.5 -2t18.5 -6q8 2 23.5 4t31.5 2q2 0 30.5 -3t78.5 -20l20 -4t20.5 -3t20.5 -1l4 -2h4q8 0 23.5 -1t34.5 -5q16 0 24 -4h6zM1509 1288 q-98 88 -221 138.5t-264 50.5t-263 -50.5t-220 -136.5q16 -4 29.5 -11t17.5 -11l8 -4q20 -10 39 -17l20 -8q49 -10 76 -22.5t27 -14.5q18 -10 28 -20q10 0 20.5 -5.5t14.5 -7.5q6 -4 15 -6q14 -6 30 -4q29 2 60 -12q14 10 28.5 19.5t22.5 13.5v6q-4 4 -4 6l-2 2q-2 4 -2 10 v10q-2 0 -2 5q-4 2 -9 14q0 4 -1 8t-1 6q-2 12 2 21l3 2q-2 16 0 25.5t2 11.5q4 31 28.5 42t40.5 13q16 -2 42 -13.5t30 -43.5q2 -2 2 -9v-26q0 -2 2 -2q4 -8 4 -19q-4 -8 -4 -16q-2 -12 -8 -14q0 -2 -2 -5v-10t-2 -10l-2 -2q0 -2 -4 -6v-6q8 -4 20 -11.5t27 -17.5 q25 12 53 8q16 -4 31 4q8 2 14 6q4 2 14.5 7.5t20.5 5.5q4 4 10 9t16 11q2 2 29 14.5t76 22.5l20 8q18 6 39 17l8 4q4 2 15.5 8t25.5 12zM520 229q78 -76 174.5 -125t206.5 -67q2 2 2 6q-2 8 0 15.5t4 11.5q0 4 2 6q-6 53 -24 137q-14 66 -4 113t14 57q0 20 1 45t1 33 q-6 33 -9 66.5t-1 70.5q0 -2 -4 -2q-6 -4 -12.5 -8t-10.5 -8l-12 -11q-12 -10 -23.5 -20t-33.5 -33q-16 -18 -28.5 -25.5t-23.5 -13.5l-8 -4q-8 -4 -15 -13t-11 -18q-27 -41 -38.5 -52t-23.5 -17q-4 -2 -11 -6.5t-18 -14.5q-16 -16 -28.5 -30.5t-22.5 -24.5q-10 -12 -18 -25 q-8 -20 -14.5 -28.5t-10.5 -14.5zM498 1249q-41 -43 -74 -91t-57 -101h6q4 4 11 5t11 1q8 4 29 4q14 4 29.5 5t23.5 1h4l4 2q10 0 20.5 1t20.5 3t23 4q47 16 75.5 19.5t30.5 3.5q16 0 27.5 -2t17.5 -2q6 2 19.5 4t36.5 2q-16 10 -23 10q-23 4 -46 17.5t-38 23.5 q-10 10 -26.5 20.5t-26.5 18.5l-12 8q-2 4 -5.5 4t-7.5 2q-18 -6 -36 9q-2 2 -11 6l-8 4l-4 4v6q-6 4 -14 8zM350 1018q-25 -61 -38 -129t-13 -139q0 -131 44 -249t122 -212q8 4 10 6t4 2q20 29 39 61.5t35 61.5q31 57 68.5 87t48.5 36q12 14 29.5 32.5t21.5 22.5 q35 66 75 105.5t56 54.5l4 2q8 8 15.5 16t15.5 19q12 12 18 20q2 4 6 8q-2 18 2 33q4 10 7.5 28.5t-7.5 49.5q-10 27 -15 51.5t-9 40.5q-10 -4 -31 -6h-37.5t-44.5 2h-53q-10 0 -17.5 -1t-11.5 -1h-6q-16 -6 -37.5 -8t-32.5 -2h-18t-16 2q-12 4 -33 5t-35 1q-10 0 -12 2 q-4 0 -7 -1t-5 -1q-16 -16 -37 -12h-13h-6h-8l-4 6q-35 -4 -51.5 -1t-22.5 7zM981 27q10 0 21.5 -1t21.5 -1q16 0 30.5 1t30.5 3l-2 4v10v6q-2 8 0 18.5t11 32.5q2 14 2 31q0 14 -1 32.5t-3 41.5q-2 16 -4.5 22t-6.5 13q-4 10 -6 26.5t6 63.5q2 8 3 21.5t-3 21.5l-4 6 q-4 12 -8 24.5t-6 38.5q-4 33 -5 46.5t-3 29.5l-4 17q0 8 -2 14t-5 14q-4 8 -6 16.5t-6 18.5q-2 -10 -4 -18.5t-6 -16.5q-2 -8 -4 -14t-2 -14l-4 -17q-2 -16 -3 -29.5t-5 -46.5q-2 -27 -6.5 -39t-8.5 -24l-4 -6q-4 -8 -3 -21.5t3 -21.5q8 -47 6 -62.5t-6 -27.5 q-4 -6 -6 -12.5t-4 -22.5q-6 -45 -4 -76t4 -33q10 -35 8 -49v-4v-10q-2 -2 -2 -6zM1163 39q111 23 205 74t170 127q-4 4 -8 12t-8 22q-8 12 -19 25q-10 10 -22.5 24.5t-28.5 28.5q-10 10 -17.5 14.5t-11.5 6.5q-12 6 -23 17t-38 52q-4 8 -11.5 17.5t-15.5 13.5l-8 4 l-22.5 13.5t-28.5 25.5q-23 23 -34 33t-23 20l-13 11q-4 4 -10 8l-12 8q-4 0 -4 2q2 -68 -11 -137q0 -8 1 -33t1 -45q4 -10 14.5 -57t-3.5 -113q-10 -41 -15.5 -75t-7.5 -62v-6q2 -4 4 -11.5t0 -15.5v-4z" />
<glyph unicode="&#xf005;" d="M1276 866q10 -10 22.5 -19t24.5 -20q25 -20 66 -57t86 -79t86 -80t65 -62q2 -10 -2 -22.5t-14 -24.5q-4 -4 -22.5 -16.5t-41.5 -10.5q-4 2 -10 2q-23 8 -64.5 40t-92 74t-101.5 88t-94 83l-25 22q-12 10 -28.5 9.5t-26.5 -13.5q-10 -12 -9 -28.5t13 -26.5l25 -20 q37 -33 80.5 -73t88 -77t83 -68.5t65.5 -48.5v-2q2 -4 1 -7t-1 -5q-10 -23 -26.5 -32t-37.5 -13h-14t-15 5t-22.5 15.5t-38.5 28.5q-10 6 -21 14.5t-24 18.5q-39 29 -77.5 60.5t-73.5 60.5q-39 33 -76 65q-31 20 -55 -8q-10 -12 -8 -27.5t16 -25.5q37 -33 76 -66 q35 -29 74.5 -60.5t78.5 -60.5q12 -10 22.5 -18t20.5 -14q16 -12 23 -17q4 -4 6 -4q4 -4 16 -12q0 -2 -1 -4t-1 -4t-1 -2t-1 -2v-3q-2 -4 -10 -12q-10 -14 -33.5 -23.5t-64.5 15.5l-35 25l-213 174q-25 20 -47 -2q-12 39 -41 63q-39 33 -88 33q-25 0 -43 -8q-10 47 -43 78 q-39 33 -88 32q-10 0 -17.5 -1t-15.5 -3q-6 47 -45 80t-88 33q-57 0 -94 -43l-17 -21q-20 4 -28 6l51 441q35 0 75.5 -1t78.5 -1h69h45q12 0 35.5 5t49.5 11t51.5 12.5t41.5 8.5q-51 -29 -73.5 -62t-20.5 -65q0 -10 3 -24.5t12.5 -32t28.5 -34t50 -28.5q27 -12 62 -12 q51 0 103 20.5t87 40.5q33 -20 61.5 -32.5t45.5 -18.5q33 -20 68.5 -49t72.5 -58zM1094 266q2 -2 2 -10v-2q0 -6 -2 -8q0 -6 -2 -8q-2 -4 -3.5 -7.5t-5.5 -7.5q-2 -4 -5 -6t-7 -6q-2 0 -6 -4q-2 0 -4 -1t-4 -1q-2 -2 -4 -2t-4 -2h-2h-3h-2h-2h-8h-2q-4 2 -6 2t-6 4 q-4 2 -12.5 9t-22.5 17q25 35 23 80q-2 8 -3.5 16.5t-5.5 18.5zM1655 1141h30.5t30.5 2l60 -529q-23 -2 -53.5 -4t-41.5 -4q-59 55 -116 109q-49 45 -102.5 93t-92.5 79q-49 41 -101 84t-102 73q-25 8 -47 19q-20 10 -43.5 22.5t-44.5 30.5l-2 -2q-4 -4 -24.5 -15.5 t-48 -24.5t-59.5 -23.5t-60 -10.5h-16.5t-16.5 4q-29 12 -39 27.5t-8 31t13 28t26 18.5q14 6 30 14q14 8 32 19.5t36 27.5q6 6 12 12.5t13 14.5q29 33 51 46t45 13q18 0 45 -10q18 -6 46 -12t55.5 -11.5t51 -7.5t33.5 -2q23 0 57.5 -8t79.5 -37q37 -23 108 -45t163 -22z M2083 616q0 -2 -2 -4l-2 -2l-203 -18q-6 0 -6 6l-70 598q0 6 4 6l203 19q6 0 6 -7zM457 711q14 -12 18 -31q4 -27 -10 -43l-33 -39q-12 -16 -35 -16t-39 14q-16 16 -19 36.5t11 37.5l31 41l18 12q6 2 19 2q23 0 39 -14zM621 602q16 -16 19 -36.5t-9 -37.5l-6 -6l-47 -53 q-12 -16 -37 -16q-18 0 -37 14q-18 16 -21.5 37.5t11.5 38.5l51 55l2 2q10 16 37 16q23 0 37 -14zM870 360q23 0 37 -14q16 -12 19.5 -29.5t-2.5 -33.5q-2 -4 -3 -5.5t-3 -5.5l-33 -39q-12 -16 -37 -16q-23 0 -37 14q-18 16 -21.5 37t11.5 37l18 23l21 20l2 4v-2 q14 10 28 10zM797 500q16 -14 19 -36t-11 -38l-19 -20l-4 -5l-20 -22l-29 -31q-14 -16 -37 -16t-39 14q-16 16 -19 36.5t11 37.5l47 53l25 27q16 16 37 16q19 0 39 -16zM242 1274q6 0 6 -8l-12 -111l-25 -217l-33 -270q0 -6 -6 -6h-2l-199 18q-6 0 -6 6l70 598q0 6 8 6z" />
<glyph unicode="&#xf006;" d="M510 872q-53 2 -76.5 3.5t-30.5 3.5q-4 2 -19 11t-35.5 22.5t-41 28.5t-31.5 30q23 8 52 14q23 4 55.5 5t69.5 -9q59 -16 75.5 -23.5t20.5 -11.5q-4 8 -14 19q-12 16 -31 28q-16 10 -42 20.5t-63 14.5q-74 4 -122 1t-56 1q-23 10 -45 33q-20 20 -42.5 58t-43.5 104 q33 -23 68 -37q29 -12 61.5 -17.5t56.5 7.5q-47 16 -83 41q-33 23 -63 58.5t-40 90.5q-4 25 2 51.5t15.5 48t17.5 37t8 19.5q6 -12 17 -27q10 -12 23 -30.5t36 -39.5q8 -10 13 -14t9 -8l5 -4q0 -37 6 -70q4 -29 16 -56.5t35 -41.5q-4 37 -8 67q-4 27 -5 52.5t3 38.5 q0 -2 13 -13.5t73 -52.5q8 -45 16 -86q8 -35 19.5 -74t23.5 -65l21 -21q-2 31 -5 64q-4 57 0 135q23 -14 50 -37q23 -20 54.5 -53t69.5 -80q-6 -49 -10 -92q-4 -37 -3 -73t11 -52q6 31 15 59q6 25 12 49.5t14 40.5q8 -6 17 -18q6 -10 13 -27.5t15 -44.5q-10 -27 -18 -51 q-6 -23 -9 -44t1 -36q2 12 8 23q4 8 12.5 15t20.5 9q-2 -4 -2 -12v-22.5t2 -36.5q4 -37 -2 -86.5t-10 -87.5h-21q-10 20 -31.5 44.5t-60.5 47.5q16 2 31 2q12 0 25.5 -3t19.5 -7q-6 27 -29 49q-20 18 -61 33.5t-115 15.5q16 12 39 20q20 6 51 10.5t72 -6.5q-14 12 -31 21 q-16 8 -35.5 15t-48.5 9zM1884 1501q31 0 53.5 -21.5t22.5 -54.5v-1349q0 -33 -22.5 -54.5t-53.5 -21.5h-776v8v19v14v14v203v12v6h633q14 0 24.5 9.5t10.5 25.5q0 14 -10.5 24.5t-24.5 10.5h-645q-2 2 -11.5 14.5t-30 27.5t-51 32.5t-73.5 30.5q10 14 13 26t3 23v35 q0 53 -45 67t-108 19v804q0 33 21.5 54.5t53.5 21.5h1016zM1741 582q14 0 24.5 10t10.5 24q0 16 -10.5 25.5t-24.5 9.5h-725q-14 0 -24.5 -9t-10.5 -26q0 -14 10 -24t25 -10h725zM1741 889q14 0 24.5 9t10.5 26q0 14 -10.5 24t-24.5 10h-725q-14 0 -24.5 -10t-10.5 -24 q0 -16 10 -25.5t25 -9.5h725zM1741 1194q14 0 24.5 10t10.5 25q0 16 -10.5 25.5t-24.5 9.5h-725q-14 0 -24.5 -9.5t-10.5 -25.5q0 -14 10 -24.5t25 -10.5h725zM1001 342l17.5 -14t11.5 -11q6 -6 8 -10v-22v-9v-6v-12v-203v-14v-14v-19q0 -4 -4 -8q-8 -10 -37.5 -19.5 t-77 -16.5t-107.5 -11t-128 -4q-74 0 -137.5 5t-111.5 12t-75.5 18.5t-27.5 23.5v299q12 16 37 35q20 14 55 29.5t88 25.5v95q-12 2 -12 8v35q0 8 55 14t133 6h33q8 0 14 -2h13h23t22 -2q39 -4 61.5 -8t22.5 -8v-35q0 -4 -19 -11v-92q53 -10 86.5 -25.5t56.5 -29.5zM496 256 q-14 0 -29 2q-12 2 -24.5 3t-22.5 5v-215q8 -4 18 -8q18 -6 58 -6v219zM748 520q12 0 23 1t22 1h6q49 4 49 8q0 -2 -15.5 -3t-39.5 -1h-37h-8h-13h-14h-29h-63q-41 0 -67.5 1t-26.5 3q0 -2 13 -4t36 -4t51.5 -2t56.5 -2h13.5t15.5 2h14h13z" />
<glyph unicode="&#xf007;" d="M1819 1423q78 -4 119.5 -58t41.5 -132q0 -41 -14 -77t-39.5 -63.5t-61.5 -44t-75 -16.5l-201 21l25 170q0 2 5 33.5t26.5 68.5t61.5 66.5t112 31.5zM1673 1434q-43 -25 -67.5 -60t-37 -67.5t-15.5 -56.5l-3 -23l-24 -172l-2 -19l-4 -20l-113 -815q-23 -197 -190 -201h-5 l-49 6q-66 16 -106.5 67.5t-42.5 116.5q0 41 14 77t40 63.5t60.5 44t75.5 16.5l2 51l-739 76l111 787q4 57 27.5 95t51 59.5t52 30.5t32.5 11l359 -26l20 -2h21zM1313 561q2 0 4 2q2 6 -2 6q-14 6 -31 15q-33 14 -78 28q-23 6 -51.5 14.5t-58.5 16.5q-31 8 -63 12t-66 9 q-35 6 -68 13t-63 11q-16 2 -32 2h-30q-16 -2 -30.5 -3t-26.5 -5q-27 -4 -47.5 -9t-34.5 -11q-8 -4 -12.5 -6.5t-8.5 -4.5l-8 -4q-2 0 -2 -2q-6 -6 2 -6q2 0 8 -2q8 -4 25 -6q8 -2 16.5 -4t18.5 -4q10 -4 21.5 -6.5t23.5 -4.5t24.5 -4t26.5 -2q14 -4 28.5 -6t30.5 -4 q31 -2 63 -1t66 -1q33 0 66 -4t63 -8q31 -4 60 -6.5t53 -4.5zM1339 764q2 0 7 4q0 4 -5 4l-28 14q-14 6 -35 12.5t-43 14.5q-25 6 -53.5 14.5t-59.5 16.5q-59 14 -127 24q-35 4 -67.5 11.5t-65.5 11.5q-16 2 -30.5 3t-30.5 1q-16 -2 -29.5 -4t-28.5 -4q-27 -4 -47 -9.5 t-34 -11.5q-8 -4 -12.5 -6t-8.5 -4l-8 -4q0 -2 -1 -2t-1 -2q0 -4 4 -6q2 0 8 -2t23 -6q8 0 17 -2.5t19 -6.5t21.5 -5t21.5 -5q12 -2 25.5 -3t26.5 -3q14 -4 28.5 -5t30.5 -3q31 -4 63.5 -3t65.5 1q35 0 66.5 -5.5t62.5 -7.5q31 -4 59.5 -6t55.5 -6q25 -4 44 -5t36 -3 q16 -2 30 -2zM1370 969q4 0 4 2q2 2 -2 6q-14 6 -31 14q-14 6 -33.5 12.5l-43.5 14.5q-23 6 -51.5 14t-59.5 17q-31 8 -62.5 13t-66.5 9q-35 6 -66.5 13.5t-64.5 11.5q-16 2 -31.5 2h-30.5q-16 -2 -30.5 -3t-26.5 -5q-27 -4 -47 -9.5t-35 -11.5l-12 -6l-8 -4l-8 -4 q-2 0 -2 -4q-4 -4 2 -4q2 0 8 -3q8 -4 24 -6q8 -2 16.5 -4t18.5 -6q10 -2 21.5 -4t23.5 -4q12 -4 24.5 -5t26.5 -3q14 -4 28.5 -5t31.5 -3q31 -4 62.5 -2t66.5 -1q33 0 65.5 -4t63.5 -8t59.5 -6t52.5 -6q25 -2 45.5 -3t36.5 -3q19 -2 31 -2zM1401 1171q4 0 4 3q2 6 -2 6 q-14 6 -31 14q-14 6 -33.5 12t-44.5 15q-49 14 -110 30q-31 8 -62.5 13.5t-66.5 9.5q-35 6 -68 13t-63 11q-16 2 -31.5 2h-30.5q-16 -2 -30.5 -3t-26.5 -5q-27 -4 -47.5 -9t-34.5 -11l-12 -6t-9 -4l-8 -5q-2 0 -2 -2q-6 -6 2 -6q2 0 8 -2q8 -4 25 -6q8 -2 16.5 -4t18.5 -4 q10 -4 21.5 -6t23.5 -4t24.5 -4t26.5 -2q14 -4 28.5 -6.5t28.5 -4.5q31 -2 64 -1t68 -1q33 0 65.5 -4t63.5 -8t59.5 -6t52.5 -4zM1081 403q-57 -31 -91 -88t-32 -125q0 -53 23 -97t59 -77l-632 66l-21 2l-18 2l-101 10q-94 4 -146 54.5t-56 138.5q0 80 55 139q55 57 135 61 l166 -18l18 -2l21 -2z" />
<glyph unicode="&#xf008;" d="M1702 203q33 -51 -9 -89t-138.5 -63.5t-234.5 -38t-296 -12.5t-295 12.5t-233.5 38t-140.5 63.5t-11 89l498 721v446l-60 66q-20 20 -13 42.5t36 22.5h188h250q29 0 36 -22.5t-13 -42.5l-60 -66v-446zM831 180q74 0 127.5 52.5t53.5 125.5q0 76 -53.5 128.5t-127.5 52.5 t-126 -52.5t-52 -128.5q0 -74 52 -126t126 -52zM1001 672q41 0 70 28.5t29 69.5t-29 69.5t-70 28.5t-69.5 -28.5t-28.5 -69.5t28.5 -69.5t69.5 -28.5zM1235 403q53 0 89 37t36 88q0 53 -36 89t-89 36q-51 0 -88 -35.5t-37 -89.5q0 -51 37 -88t88 -37z" />
<glyph unicode="&#xf009;" d="M1616 207q6 0 6 -6v-195q0 -6 -6 -6h-1120q-6 0 -7 6v94q0 6 7 6h157v248h-221q-6 0 -6 6v144q0 6 6 6h631q6 0 6 -6v-144q0 -6 -6 -6h-221v-147h299q152 164 196.5 297t30.5 233q-35 16 -57.5 49t-22.5 74q0 29 12 53q-35 47 -65.5 75t-40.5 36l-188 -252q-4 -4 -9 0 l-63 47l-55 -74q-6 -6 -9 -2l-100 76q-6 4 -2 8l57 74l-63 49q-8 0 -2 6l385 510q0 8 6 2l66 -49l59 78q4 6 8 2l100 -76q4 -2 2 -8l-59 -80l62 -45q4 -4 0 -8l-111 -147q94 -72 154 -144q53 -4 87.5 -41t34.5 -90q0 -31 -12 -55q37 -96 38 -187.5t-17.5 -170t-46 -141 t-50.5 -99.5h150zM1204 1321l4 10l-4 19l-30 24l-9 4h-8q-12 0 -18 -10l-256 -340q-6 -8 -5 -18.5t9 -16.5l26 -18l9 -6h6q12 0 18 10z" />
<glyph unicode="&#xf00a;" d="M2028 1346q-49 -49 -76 -98.5t-36 -93.5t-4 -85t17 -76q29 -82 99 -151v-172q-53 -57 -81 -110.5t-38.5 -102.5t-5 -92t17.5 -80q31 -86 107 -156v-129h-132q-68 43 -149 61q-72 16 -167 7t-208 -68h-215l-4 4q8 16 8 31v219h574q18 0 18 18v957q0 16 -18 16h-916 q-16 0 -16 -16v-322h-213q33 49 47 95.5t15 88.5t-7 78.5t-22 67.5q-33 72 -97 133v129h131q68 -43 150 -61q72 -16 167 -8t208 69h215q66 -47 145 -65q68 -16 156 -8t188 73h142v-153zM1174 344q131 -4 212 78q39 37 58.5 89t19.5 112q0 61 -22.5 113t-63.5 90t-96 59.5 t-121 21.5h-280v260h792v-835h-512v14q4 0 6.5 -1t6.5 -1zM979 477q14 -35 38.5 -64.5t61.5 -45.5v-35v-39v-39v-209h-8h-108v29v180v39v39v37q0 31 -33 30h-23q-16 0 -26 -14q-4 -12 -4 -16v-76v-39v-180v-29h-121l-2 -2v2v324q0 14 -9.5 22t-21.5 8h-25q-31 0 -30 -30 v-324h-123v127v197q0 14 -9.5 22t-21.5 8h-25q-31 0 -30 -30v-324h-119v332q31 16 52.5 42.5t33.5 57.5h209h168h39h39h98zM1174 426q-4 0 -6.5 1t-6.5 1q-12 2 -21.5 4t-19.5 6q-29 14 -41 29q-6 6 -8 10q-14 16 -20 41q-2 10 -7 27v14v6v17q2 20 13 43q10 23 31.5 39 t54.5 16q49 0 69 -27q12 -16 15.5 -32.5t-0.5 -28.5q-2 -4 -1 -5t1 -5q0 -33 30 -39q16 -4 31 5t19 25q8 35 -0.5 70t-30.5 62q-16 20 -48 38.5t-85 18.5q-66 0 -109 -36t-61 -89q-4 -14 -6 -27.5t-4 -27.5v-17v-6q0 -8 2 -14h-84h-39h-39h-195h-168v14q2 2 2 8q0 4 -1 7.5 t-1 7.5q-2 14 -4 27.5t-6 27.5q-16 53 -59 89t-109 36q-55 0 -87 -18.5t-48 -38.5q-23 -27 -30 -62t1 -70q4 -16 18.5 -25t30.5 -5q31 6 31 39v10q-4 12 -1 28.5t16 32.5q20 27 69 27q31 0 52.5 -15.5t31.5 -37.5q8 -18 12 -45q0 -4 1 -8.5t1 -8.5t-2 -6v-14q0 -12 -6 -27 q-6 -20 -18 -38.5t-35 -33.5q-8 -6 -18.5 -9t-22.5 -7q-16 -4 -29 -4q-94 -2 -153 53q-29 27 -42.5 64t-13.5 80q0 90 62.5 146t159.5 56h284h277h39h39h280q98 0 159.5 -56t61.5 -146t-53 -144q-29 -27 -68.5 -41t-86.5 -12z" />
<glyph unicode="&#xf00b;" d="M1870 752q0 -49 -26.5 -90t-75 -76t-115 -62.5t-144.5 -48.5q6 -27 12.5 -51.5t10.5 -46.5q27 -135 6.5 -226.5t-84.5 -127.5q-39 -23 -84 -23q-72 0 -162 53t-184 148q-94 -94 -184 -147.5t-162 -53.5q-45 0 -84 23q-63 37 -84 128t6 226q4 23 10 47.5t13 50.5 q-78 20 -144.5 48t-115 63t-75 75.5t-26.5 90.5q0 49 26.5 90t75 75.5t115 62.5t144.5 48q-6 27 -12.5 51.5t-10.5 46.5q-27 135 -6.5 226.5t84.5 128.5q39 23 84 22q72 0 162 -53t184 -147q94 94 184 147t162 53q45 0 84 -22q63 -37 84 -128t-6 -227q-4 -23 -10 -47 t-13 -51q78 -20 144.5 -48t115 -62.5t75 -75.5t26.5 -90zM1370 1413q-51 0 -125 -45t-160 -131q33 -35 64 -75t61 -83q109 -8 211 -30q6 25 12.5 49t10.5 47q18 100 9 167.5t-46 90.5q-17 10 -37 10zM1352 649q-10 -16 -19.5 -33.5t-19.5 -33.5t-18.5 -30.5t-18.5 -29.5 q66 6 119 19q-10 27 -21.5 53t-21.5 55zM1235 627q18 31 34.5 62.5t33.5 62.5q-16 31 -33 62.5t-35 62.5t-36.5 59.5t-37.5 54.5q-66 6 -137 6q-74 0 -137 -6l-37 -55.5t-37 -58.5q-18 -31 -34.5 -63t-33.5 -62q16 -31 33 -63t35 -62q18 -31 36.5 -59.5t37.5 -55.5 q63 -6 137 -6q70 0 137 6l37 55.5t37 59.5zM1024 332q16 20 34.5 41.5t35.5 44.5q-16 0 -35 -1t-35 -1q-18 0 -35.5 1t-34.5 1q16 -23 35 -44.5t35 -41.5zM735 582q-10 16 -19 33.5t-20 33.5q-10 -29 -21 -55.5t-22 -52.5q53 -12 119 -19q-10 14 -18.5 29t-18.5 31zM696 854 q10 16 19.5 33.5t19.5 34.5q10 16 18.5 30.5t18.5 28.5q-66 -6 -119 -18q20 -58 43 -109zM954 1085q16 0 35 1t35 1t34.5 -1t35.5 -1q-16 23 -35 44.5t-35 41.5q-16 -20 -35 -41.5t-35 -44.5zM1313 922q10 -16 19 -34t20 -34q10 29 21 55.5t22 53.5q-53 12 -119 18 q10 -14 18.5 -28.5t18.5 -30.5zM604 1145q4 -23 9 -47.5t14 -48.5q102 23 211 30q31 43 61.5 83t63.5 75q-86 86 -160 131t-125 45q-20 0 -37 -10q-37 -23 -46 -90.5t9 -167.5zM268 752q0 -53 80 -103.5t217 -87.5q33 92 80 191q-47 98 -80 190q-137 -37 -217 -87t-80 -103z M641 100q43 -27 129 16.5t193 149.5q-33 35 -64 75t-61 83q-55 6 -107.5 13t-103.5 18q-8 -25 -13.5 -48.5t-9.5 -46.5q-18 -102 -9 -169.5t46 -90.5zM1444 358q-4 23 -10.5 47.5t-12.5 49.5q-51 -10 -103 -17.5t-108 -13.5q-31 -43 -61.5 -83t-63.5 -75 q106 -106 192.5 -149t129.5 -17q37 23 46 90.5t-9 167.5zM1483 561q137 37 217 87t80 104q0 53 -80 103t-217 87q-35 -92 -80 -190q45 -99 80 -191zM1024 901q61 0 105.5 -44t44.5 -105t-44.5 -105.5t-105.5 -44.5t-105.5 44t-44.5 106q0 61 44.5 105t105.5 44z" />
<glyph unicode="&#xf00c;" d="M1749 1499q14 0 24.5 -10t10.5 -25v-1431q0 -14 -10.5 -23.5t-24.5 -9.5h-664q61 59 103.5 134t56.5 163v-27q0 -20 14.5 -33.5t34.5 -13.5h58q18 0 32.5 13.5t14.5 33.5v58q0 20 -14.5 33.5t-32.5 13.5h-58q-31 0 -41 -25v37q0 100 -34.5 188.5t-94.5 159.5 q16 2 28.5 15.5t12.5 29.5v58q0 20 -14 33.5t-35 13.5h-57q-20 0 -33.5 -13.5t-13.5 -33.5v-7q-63 41 -136 64t-153 23q-43 0 -86 -7v553q0 14 10 24.5t25 10.5h1077zM930 1094q0 20 -13.5 33.5t-33.5 13.5h-58q-20 0 -33.5 -13.5t-13.5 -33.5v-58q0 -20 13.5 -34.5 t33.5 -14.5h58q20 0 33.5 14.5t13.5 34.5v58zM1165 1094q0 20 -14 33.5t-35 13.5h-57q-20 0 -33.5 -13.5t-13.5 -33.5v-58q0 -20 13 -34.5t34 -14.5h57q20 0 34.5 14.5t14.5 34.5v58zM1399 584q0 18 -14.5 32.5t-32.5 14.5h-58q-20 0 -34.5 -14.5t-14.5 -32.5v-58 q0 -20 14.5 -34.5t34.5 -14.5h58q18 0 32.5 14.5t14.5 34.5v58zM1399 838q0 20 -14.5 33.5t-32.5 13.5h-58q-20 0 -34.5 -13.5t-14.5 -33.5v-58q0 -20 14.5 -33.5t34.5 -13.5h58q18 0 32.5 13.5t14.5 33.5v58zM1399 1094q0 20 -14.5 33.5t-32.5 13.5h-58q-20 0 -34.5 -13.5 t-14.5 -33.5v-58q0 -20 14.5 -34.5t34.5 -14.5h58q18 0 32.5 14.5t14.5 34.5v58zM1632 584q0 18 -13 32.5t-34 14.5h-57q-20 0 -33.5 -14.5t-13.5 -32.5v-328q0 -18 13 -32.5t34 -14.5h57q20 0 33.5 14.5t13.5 32.5v328zM1632 838q0 20 -13 33.5t-34 13.5h-57 q-20 0 -33.5 -13.5t-13.5 -33.5v-58q0 -20 13 -33.5t34 -13.5h57q20 0 33.5 13.5t13.5 33.5v58zM1632 1094q0 20 -13 33.5t-34 13.5h-57q-20 0 -33.5 -13.5t-13.5 -33.5v-58q0 -20 13 -34.5t34 -14.5h57q20 0 33.5 14.5t13.5 34.5v58zM1688 1343q0 20 -14.5 34t-33.5 14 h-870q-18 0 -32.5 -13.5t-14.5 -34.5v-57q0 -20 14.5 -33.5t32.5 -13.5h870q18 0 33 13.5t15 33.5v57zM719 842q94 0 177 -36t145.5 -97.5t98.5 -144.5t36 -177q0 -123 -60.5 -225.5t-159.5 -161.5q-51 -33 -111.5 -50.5t-125.5 -17.5q-94 0 -177 36t-144.5 97.5 t-97.5 144.5t-36 177q0 84 29 159t79 134t117.5 99t147.5 55q20 4 41 6t41 2zM856 125q76 49 76 162q0 82 -62 125q-29 20 -110 45v149q23 -6 39 -28q8 -18 12 -41l2 -19h107v21q-2 72 -50 118q-39 39 -110 50v51h-78v-51q-12 -2 -23.5 -4.5t-21.5 -6.5q-43 -12 -70 -43 q-49 -53 -49 -118q0 -76 47 -119q14 -12 31.5 -21.5t40.5 -19.5q10 -4 21.5 -6t23.5 -7v-169q-29 6 -45 28l-6 6q-4 8 -8.5 23.5t-6.5 46.5l-2 18h-106v-20q0 -72 24 -115q31 -59 105 -78q10 -4 21.5 -6t23.5 -4v-76h78v76q55 8 96 33zM795 326q27 -18 26 -58q0 -29 -10 -43 q-16 -29 -51 -35v152q14 -4 22.5 -8t12.5 -8zM637 571q4 4 5 7.5t3 7.5q14 18 37 20v-131q-10 4 -19.5 9t-15.5 10q-4 4 -5 6t-5 6q-4 8 -6 15t-2 18q0 12 8 32z" />
<glyph unicode="&#xf00d;" d="M1669 1374q25 0 25 -24v-326q-6 0 -12.5 -1t-12.5 -1q-16 -4 -27 -6q-43 -10 -92 -27.5t-100 -45.5t-99 -64.5t-87 -85.5l-13 -15q-23 -31 -56.5 -67.5t-80.5 -59t-108.5 -18.5t-139.5 57q-57 39 -122.5 52.5t-129 10.5t-119 -19.5t-92.5 -37.5l-12 -8l-12 -8 q-16 -12 -25 -16v686q0 25 25 24h1290zM682 1024q10 27 30.5 54.5t53.5 49.5v5q0 47 -33 79.5t-80 32.5t-79.5 -32.5t-32.5 -79.5t32.5 -80t79.5 -33q19 0 29 4zM1194 934q47 0 68.5 8t31.5 19q10 12 11 28q0 39 -13.5 60.5t-32 33t-37 14.5t-28.5 3h-8q-49 47 -105 47 q-12 0 -18 -2q-29 -4 -50.5 -15.5t-37.5 -23.5q-18 -14 -31 -33q-29 6 -49 6q-47 0 -72.5 -17.5t-42.5 -37.5q-18 -25 -24 -55q-2 -10 4 -19q8 -16 39 -16h395zM1642 952q16 4 27 4q16 4 25 5v-500q0 -10 -7.5 -17.5t-17.5 -7.5h-1290q-10 0 -17.5 7.5t-7.5 17.5v119 q4 6 10.5 11t14.5 11q6 4 12 10t12 11q29 20 79 39.5t109.5 26.5t122 -3t117.5 -47q94 -66 172 -69t136.5 25t99.5 71t64 71l10 15q33 43 76 75.5t88 57t87.5 41t77.5 26.5zM1669 365q25 0 25 -25v-35q0 -27 -25 -26h-1290q-25 0 -25 26v35q0 25 25 25h1290zM985 1460 q-27 0 -27 27v74q0 10 8.5 17t18.5 7h84q10 0 18.5 -7t8.5 -17v-74q0 -27 -27 -27h-84zM1044 217q25 0 25 -27v-174q0 -27 -25 -26h-34q-25 0 -25 26v174q0 27 25 27h34zM868 197q25 -10 13 -33l-152 -240q-4 -10 -14 -13t-21 1l-30 16q-10 4 -12.5 14.5t1.5 20.5l152 240 q10 20 33 10zM1401 -37q4 -10 2 -20.5t-12 -14.5l-31 -16q-10 -4 -20.5 -1t-14.5 13l-151 240q-10 20 12 33l31 16q20 10 34 -10z" />
<glyph unicode="&#xf00e;" d="M504 735q-4 2 -12 10q-2 4 -4.5 13.5t-2.5 19.5v41q0 4 1 11.5t6 17.5q6 12 23 29.5t56 37.5q59 29 103.5 53.5t62.5 78.5q-4 2 -8 8q-4 4 -7 10t-5 14l-4 39q-12 4 -21 12q-8 8 -14 23.5t-8 44.5q0 6 2 12q4 10 18 11q-2 10 -4 24q-2 12 -4 27.5t0 38.5q2 41 25.5 64.5 t50.5 33.5q31 12 69 14h9q4 0 9 -1t13 -1q16 0 33 -8q2 -4 8 -10q2 -2 2 -4q4 8 10.5 6t10.5 -4q51 -27 51 -90q0 -23 -1 -38.5t-3 -27.5q-2 -14 -4 -24q14 0 18 -11q2 -6 2 -12q-2 -29 -8 -44t-14 -24q-8 -8 -21 -12l-4 -39q-2 -8 -5 -14t-7 -10q-4 -6 -8 -8q18 -53 62 -78 t103 -54q39 -20 56.5 -37.5t23.5 -29.5q4 -10 4 -17.5v-11.5v-41q0 -20 -4 -33q-8 -8 -12 -10h-8h-631h-8zM381 479h893l-96 -483h-701zM1249 657q25 0 25 -22v-55q0 -25 -25 -25h-843q-25 0 -25 25v55q0 23 25 22h843zM1647 1497q18 0 32.5 -13.5t14.5 -33.5v-246 q0 -20 -14.5 -33.5t-32.5 -13.5h-338l-135 -110v110h-62q-20 0 -33.5 13.5t-13.5 33.5v246q0 20 13.5 33.5t33.5 13.5h535z" />
<glyph unicode="&#xf00f;" d="M1772 1503q29 0 49 -20.5t20 -48.5v-856v-508q0 -29 -20.5 -49.5t-48.5 -20.5h-338h-258q6 18 7 35.5t1 23.5v54q2 10 0 30.5t-15 42.5q-20 43 -75 86h153v19v82v16h-338v-14q-31 16 -45 35q4 8 7 17t6 19v5v4l2 8q23 20 41 56t22 93v4v2q-4 45 -22 70v4h327v19v82v18 h-329q-10 49 -37 88t-70 62q-8 8 -37 14q-16 12 -37.5 16t-38.5 8q-16 0 -26 1t-19 1h-6h-2v433q0 29 20.5 49t49.5 20h1057zM1247 1235h-391v-8v-82v-27h391v27v82v8zM1716 182q0 8 -4 15q-4 6 -12 15t-29 19q-31 16 -53.5 28.5t-32.5 41.5l4 4q2 2 6 12l2 21q4 0 11 6 q4 4 7 11t5 24q0 2 -2 6q-6 6 -8 6q0 4 2 12q0 6 1 15.5t1 19.5q0 31 -27 45q-2 2 -5 3t-5 -3q-2 0 -2 2q-2 2 -2 3t-2 4q-8 4 -17 4h-16q-20 -2 -37 -9q-14 -6 -25.5 -16t-11.5 -33q-2 -10 -1 -19t1 -16q0 -8 2 -12q-4 0 -5 -2t-3 -4q-2 -4 -2 -6q0 -16 4 -23.5t8 -11.5 q6 -6 11 -6l2 -21q0 -6 6 -12l4 -4q-10 -29 -32.5 -41t-53.5 -29q-20 -10 -28.5 -19t-12.5 -15q-4 -4 -3 -8.5t1 -6.5v-20q0 -14 2 -17q2 -4 3 -4t3 -2h4h328h4q2 2 3 2t3 4q4 4 4 17v20zM1716 616q0 8 -4 15q-4 6 -12 15t-29 20q-31 16 -53.5 28.5t-32.5 40.5l4 4q2 2 6 13 l2 20q4 0 11 6q4 4 7 11.5t5 23.5q0 2 -2 6q-6 6 -8 6q0 4 2 13q0 6 1 15t1 19q0 31 -27 46q-2 2 -5 3t-5 -3q-2 0 -2 2q-2 2 -2 3t-2 3q-8 4 -17 4h-16q-20 -2 -37 -8q-14 -6 -25.5 -16.5t-11.5 -33.5q-2 -10 -1 -19t1 -15q0 -8 2 -13q-4 0 -5 -2t-3 -4q-2 -4 -2 -6 q0 -16 4 -23.5t8 -11.5q6 -6 11 -6l2 -20q0 -6 6 -13l4 -4q-10 -29 -32.5 -41t-53.5 -28q-20 -10 -28.5 -19.5t-12.5 -15.5q-4 -4 -3 -8.5t1 -6.5v-20q0 -14 2 -16q2 -6 6 -7h4h328h4q2 0 6 7q4 4 4 16v20zM1716 1051q0 8 -4 14t-12 15.5t-29 19.5q-31 16 -53.5 28.5 t-32.5 40.5l4 5q2 2 6 12l2 20q4 0 11 6q4 4 7 11.5t5 23.5q0 2 -2 6q-6 6 -8 7q0 4 2 12q0 6 1 15t1 20q0 31 -27 45q-2 2 -5 3t-5 -3q-2 0 -2 2q-2 2 -2 3t-2 3q-8 4 -17 4h-16q-20 -2 -37 -8q-14 -6 -25.5 -16.5t-11.5 -32.5q-2 -10 -1 -19.5t1 -15.5q0 -8 2 -12 q-4 0 -5 -2.5t-3 -4.5q-2 -4 -2 -6q0 -16 4 -23t8 -12q6 -6 11 -6l2 -20q0 -6 6 -12l4 -5q-10 -29 -32.5 -41t-53.5 -28q-20 -10 -28.5 -19.5t-12.5 -15.5q-4 -4 -3 -8t1 -6v-21q0 -14 2 -16q2 -6 6 -6h4h328h4q2 0 6 6q4 4 4 16v21zM983 229q49 -27 70.5 -48t29.5 -36 q4 -10 4 -17v-15v-54q0 -12 -2 -22t-2 -12q-2 -4 -3 -4.5t-3 -2.5l-2 -2h-8h-838h-8q-6 0 -8 9q-6 6 -6 34v56q0 6 1 13t5 17q8 14 29.5 36t70.5 48q12 6 24.5 12.5t22.5 10.5q61 31 109.5 62.5t71.5 97.5l4 10l-8 6q-6 4 -11 10q-10 8 -12 25l-6 61l-10 2l-8 3 q-7 3 -15 12.5t-15 28t-9 48.5q0 4 2 9q4 8 12 8h18l-4 18q0 2 -6 33t-4 84q2 45 25.5 71.5t54.5 40t59.5 17.5t40.5 4h4h35q25 -4 35 -10l8 -8q2 -2 2 -4l10 -27l15 25q2 0 10 -5q57 -29 57 -104q0 -29 -1 -49.5t-3 -36.5q-2 -18 -4 -31l-2 -18h19q8 0 9 -7t1 -10 q-2 -31 -9.5 -49t-14.5 -27.5t-14 -12.5l-7 -3l-13 -2l-6 -59q-2 -10 -5 -16.5t-7 -10.5q-4 -6 -8 -10l-8 -6l2 -10q25 -70 94 -113q8 -6 16 -11t19 -9q12 -6 24.5 -12.5t26.5 -14.5q12 -4 24.5 -10.5t24.5 -12.5z" />
<glyph unicode="&#xf010;" d="M1026 729l-86 78v694h612v-516l-133 86zM1966 1501q23 0 38 -15.5t15 -37.5v-326l-295 -248l-88 58v569h330zM506 954q-12 16 -25.5 24.5t-23.5 12.5q-12 4 -25 2l-2 455q0 23 16.5 38t38.5 15h367v-614l-94 86l-170 -133zM1733 741l286 240v-928q0 -23 -15 -38t-38 -15 h-1323v8v232h193q25 0 47 13t32 36q27 47 -6 94l-260 369l103 79l272 -245l406 352zM1444 362h-117v117h-82v-117h-117v-81h117v-117h82v117h117v81zM836 330h-283v-330h-152h-90v330h-282l348 495l55 78l84 -119l62 -88z" />
<glyph unicode="&#xf011;" d="M1022 1333q-12 0 -17.5 9.5t-5.5 19.5v192q0 29 23 29t22 -29v-192q0 -10 -5 -19.5t-17 -9.5zM1384 1413q0 -8 -8 -8h-252q-8 0 -8 8v139q0 8 8 9h252q8 0 8 -9v-139zM1896 6q0 -6 -8 -6h-1728q-8 0 -8 6v121q0 6 8 6h1728q8 0 8 -6v-121zM233 807q-8 0 -8 8v152q0 8 8 8 h1582q8 0 8 -8v-152q0 -8 -8 -8h-1582zM1024 1280q-135 0 -245.5 -65.5t-176.5 -174.5h844q-66 109 -176.5 174.5t-245.5 65.5zM1815 741h-1582q-8 0 -8 -8v-514q0 -6 8 -6h117v362q0 25 17.5 43.5t42.5 18.5q27 0 44 -18.5t17 -43.5v-362h156v362q0 25 17.5 43.5t41.5 18.5 q27 0 44.5 -18.5t17.5 -43.5v-362h155v303q0 49 35 85t86 36q49 0 85 -36t36 -85v-303h155v362q0 25 17.5 43.5t42.5 18.5q27 0 44 -18.5t17 -43.5v-362h156v362q0 25 17.5 43.5t43.5 18.5q25 0 42.5 -18.5t17.5 -43.5v-362h117q8 0 8 6v514q0 8 -8 8z" />
<glyph unicode="&#xf012;" d="M223 199h189v-199h-131q-25 0 -41.5 17.5t-16.5 41.5v140zM223 334l189 112v-129h-189v17zM467 1501l-203 -303h148v-614l-189 -113v971q0 25 16.5 42t41.5 17h186zM1767 1501q23 0 40.5 -17.5t17.5 -41.5v-94l-332 41l74 -123l-154 -90q-47 37 -100 36q-66 0 -111 -45 t-45 -110q0 -20 2 -31l-364 -215q-35 23 -80 23q-66 0 -111 -45.5t-45 -110.5v-6l-31 -19v545h148l-203 303h1294zM1518 53l307 205v-199q0 -25 -17.5 -42t-40.5 -17h-1239v199h990v-146zM1706 1034l119 314v-1090l-307 207v-148h-990v199l82 47q20 -18 47 -29.5t58 -11.5 q66 0 110.5 45t44.5 111q0 18 -6 37l363 213q8 -6 28 -15v-116h113v116q43 16 70.5 55.5t27.5 88.5v12l162 96zM1024 737h-113v-119h113v119zM1196 737h-113v-119h113v119zM1368 737h-113v-119h113v119zM715 610q-6 0 -19 4q-23 6 -36 23.5t-13 40.5q0 29 19.5 48t48.5 19 t48 -19t19 -48q0 -6 -4 -14q-4 -23 -22 -38.5t-41 -15.5zM1313 989q-29 0 -48.5 19.5t-19.5 48.5q0 6 1 11t3 11q6 18 23.5 31.5t40.5 13.5q2 0 4 -1t6 -1q23 -4 39 -22.5t16 -42.5q0 -29 -18 -48.5t-47 -19.5z" />
<glyph unicode="&#xf013;" d="M1880 1022h-215q47 78 98.5 130t116.5 52v-182zM711 1415q-14 0 -26.5 -1t-27.5 -3q-2 2 -11 16.5t-21 30.5q-14 20 -31 43h1229q25 0 41 -17.5t16 -39.5v-154q-57 0 -104 -24.5t-86 -65.5t-73 -92t-67 -104q-35 -55 -69.5 -108.5t-75.5 -96.5t-91 -68.5t-112 -25.5 q-74 0 -127 34.5t-106 79.5q-29 23 -58.5 46.5t-63.5 43t-74 31.5t-87 12q-4 0 -9 -1t-9 -1q4 33 7 58.5t7 44.5q18 -14 46 -25.5t67 -11.5q53 0 86.5 18.5t52.5 36.5q35 37 42 76t7 51q0 14 -10 56t-51 85q-74 76 -211 76zM1608 668h-230q74 43 128.5 114.5t101.5 147.5 v-262zM686 866q53 0 93 -20.5t79 -48.5h-199q2 18 2.5 34.5t2.5 32.5q4 0 10 1t12 1zM868 788q10 -8 21.5 -16t21.5 -18q27 -23 54.5 -45.5t60.5 -40.5h-158v120zM659 737h150v-440h-193q27 102 35 199.5t8 167.5v73zM868 614h211v-317h-211h-4v317h4zM1133 614h215v-317 h-215v317zM1401 297v317h207v-317h-207zM1677 297v655h197v-587l-53 41q-27 16 -54 16q-23 0 -38 -8q-47 -27 -48 -78v-39h-4zM369 1374h-125l168 225l157 -210l-15 -7.5l-15 -7.5h-84v-59l-13.5 -13.5t-15.5 -17.5q-35 -37 -57 -84v174zM1767 0v123h-1218q12 25 26 57 q4 8 7.5 14.5t5.5 14.5h1179v127l228 -168zM571 606q-4 -74 -11 -137t-17 -117q0 -2 -1 -4t-1 -4q-12 -51 -27 -92q-4 -10 -8 -21.5t-8 -21.5q-4 -8 -7.5 -15.5t-7.5 -13.5q-16 -31 -37 -57q-18 -25 -38 -45q-27 -27 -56 -41q-35 -20 -69.5 -28.5t-69.5 -8.5q-59 0 -92 19.5 t-47.5 42t-16.5 42.5l-2 19q-2 31 11 55q10 23 34.5 40.5t73.5 17.5q59 0 80.5 -29t28.5 -57q4 -33 0 -44v-4l2 2q20 12 41 52q33 70 43 202q8 96 8 214v247q0 92 13 166t36 131q6 16 13 30.5t16 29.5q10 16 21 31.5t24 27.5q16 18 43 39q12 8 20 12q41 27 84 35q31 6 64 6 q70 0 107.5 -20.5t53.5 -44.5q20 -29 23 -66q0 -27 -10 -47q-10 -16 -30.5 -30.5t-59.5 -14.5q-41 0 -60.5 16.5t-27.5 38.5q-8 25 -9 58q-25 -6 -43 -21.5t-33.5 -46.5t-25.5 -82t-16 -131q-2 -16 -2 -31.5t-3 -32.5q0 -16 -1 -35.5t-1 -39.5v-29q-2 -25 -2 -50.5v-53.5 v-58z" />
<glyph unicode="&#xf014;" d="M1751 229q25 -29 0 -53l-160 -166q-10 -10 -25.5 -10t-25.5 10l-330 346q-145 -92 -319 -92q-125 0 -235.5 48t-192.5 132t-130 197t-48 242t48 241.5t130 196.5t192.5 132t235.5 48t235.5 -48t192.5 -132t130 -196.5t48 -241.5q0 -88 -23.5 -168t-64.5 -152zM891 449 q88 0 165 33.5t134 93t91 138.5t34 169t-34 168.5t-91 137t-134 92.5t-165 34t-165 -34t-134 -92.5t-91 -137t-34 -168.5t34 -169t91 -138.5t134 -93t165 -33.5z" />
<glyph unicode="&#xf015;" d="M1024 1501q156 0 292 -59.5t237.5 -160.5t161 -237.5t59.5 -291.5q0 -156 -59.5 -292t-161 -237.5t-237.5 -161t-292 -59.5t-292 59.5t-237.5 161t-161 237.5t-59.5 292t59.5 292t161 237t237.5 160.5t292 59.5zM907 1083q0 -10 8 -10h232q8 0 8 10v195q0 8 -8 8h-232 q-8 0 -8 -8v-195zM1247 414q0 8 -8 8h-84v565q0 10 -8 10h-12h-220h-96q-8 0 -8 -10v-172q0 -8 8 -8h88v-385h-88q-8 0 -8 -8v-172q0 -10 8 -11h420q8 0 8 11v172z" />
<glyph unicode="&#xf016;" d="M1024 1501q156 0 292 -59.5t237.5 -161.5t161 -238.5t59.5 -291.5q0 -156 -59.5 -292t-161 -237.5t-237.5 -161t-292 -59.5t-292 59.5t-237.5 161t-161 237.5t-59.5 292t59.5 292t161 238t237.5 161.5t292 59.5zM1024 127q129 0 242.5 49t197.5 134t133.5 198t49.5 242 t-49.5 242.5t-133.5 197.5t-197.5 133t-242.5 49t-242.5 -49t-197.5 -133t-133.5 -197.5t-49.5 -242.5t49.5 -242t133.5 -198t197.5 -134t242.5 -49zM1204 489q6 0 6 -6v-131q0 -8 -6 -8h-360q-6 0 -6 8v131q0 6 6 6h117v297h-117q-6 0 -6 7v131q0 8 6 8h96h137h8q8 0 9 -8 v-435h110zM967 1018q-6 0 -6 8v148q0 8 6 8h118q8 0 9 -8v-148q0 -8 -9 -8h-118z" />
<glyph unicode="&#xf017;" d="M1757 246q10 -20 10 -36.5v-27.5v-86q0 -20 -4 -40.5t-8 -30.5q-14 -16 -24 -21q-4 -4 -13 -4h-8h-258q0 2 1 5t1 5q0 88 -37 166t-96 135.5t-137 90t-160 32.5q-94 0 -173 -36t-136.5 -96t-89 -137t-31.5 -157v-8h-256h-8q-8 0 -13 4q-10 4 -24 21q-4 10 -8 30.5 t-4 40.5v86v26.5t10 37.5q14 27 51 65.5t123 81.5q63 33 120.5 59.5t104.5 57.5t82 71t55 97q-10 8 -18 18t-15.5 24.5t-11.5 33.5l-8 80q-25 4 -45 24q-16 16 -31.5 52t-19.5 98q0 14 6 26q4 10 14.5 18.5t26.5 8.5q-6 20 -10 51q-4 25 -7 61.5t1 83.5q2 45 16 80 t36.5 59.5t51.5 42t57 29.5q68 27 154 31h18q10 0 21.5 -1t28.5 -1q12 -2 34.5 -6t34.5 -14q6 -4 9.5 -10.5t7.5 -10.5q4 -6 6 -10q10 18 25.5 13t21.5 -9q51 -27 79.5 -78t28.5 -115q0 -47 -2 -83.5t-6 -61.5q-4 -31 -8 -51q16 0 26.5 -8.5t14.5 -18.5q6 -12 6 -26 q-4 -61 -19.5 -97.5t-31.5 -52.5q-20 -20 -45 -24l-8 -80q-8 -37 -27 -58q-8 -10 -18 -18q18 -57 53 -97t82 -71t104.5 -57.5t122.5 -59.5q84 -43 122 -81.5t52 -65.5zM1024 145q18 0 30.5 -12t12.5 -31v-49h-86v49q0 18 12.5 30.5t30.5 12.5zM1024 352q72 0 135.5 -27.5 t111.5 -74.5t75.5 -109.5t27.5 -134.5t-27.5 -134t-75.5 -109.5t-111.5 -75t-135.5 -27.5t-136.5 27.5t-111.5 75t-74.5 109.5t-27.5 134t27.5 134.5t74.5 109.5t111.5 74.5t136.5 27.5zM1167 37q0 6 -6 6h-31v59q0 45 -30.5 76t-75.5 31t-77 -31t-32 -76v-59h-28 q-6 0 -6 -6v-195q0 -6 6 -6h274q6 0 6 6v195z" />
<glyph unicode="&#xf018;" d="M1751 922q53 -66 82 -150t39 -174q2 -14 -4 -22.5t-15 -12.5q-8 -6 -20 -8h-82q-12 2 -20 8q-8 4 -15.5 12.5t-9.5 24.5q-6 55 -27.5 113.5t-58.5 105.5q-49 61 -126 98t-169 37h-2q-135 0 -232.5 -53t-136.5 -121l250 -164l-583 -227v610l202 -133q31 53 77 100.5 t108.5 81t141.5 53t173 19.5h2q82 0 149.5 -19.5t121 -48t92 -63t63.5 -67.5zM1395 449q25 0 42 -17.5t17 -42.5v-252v-78q0 -25 -17.5 -42t-41.5 -17h-78h-1004h-80q-25 0 -41 17.5t-16 41.5v1383q0 25 16.5 42t40.5 17h3h77h1082q25 0 42 -17.5t17 -41.5v-78 q0 -25 -17.5 -42t-41.5 -17h-1024v-1108h886v192q0 25 17.5 42.5t42.5 17.5h78z" />
<glyph unicode="&#xf019;" d="M1565 522v273q0 27 -3 41t-6 18l-40 39l-267 -266l490 -486l-144 -141l-487 485l-107 -106l35 -37l-342 -340l-35 35l-141 141l-35 37l340 340l37 -35l107 107l-262 262q-29 -12 -60 -20.5t-63 -8.5q-61 0 -116.5 23.5t-95.5 64.5t-63.5 95.5t-23.5 115.5q0 10 1 17.5 t3 15.5l110 -111l166 -26l119 116l-29 164l-116 119q10 2 21 3t24 1q61 0 115.5 -23.5t94 -63.5t63.5 -95t24 -117q0 -72 -31 -129l260 -262l266 266l-41 43l-123 -20l-159 160l71 71l142 142l71 69l158 -158l-18 -122l229 -230q12 -14 36.5 -59t24.5 -135v-273h-200z" />
<glyph unicode="&#xf01a;" d="M1151 326v-193h498v-74q0 -25 -17.5 -42t-42.5 -17h-438v-74v-159l-133 90l-119 80l-119 -80l-131 -90v159v74h-190q-25 0 -42.5 17.5t-17.5 41.5v1383q0 25 17.5 42t42.5 17h1130q25 0 42.5 -17.5t17.5 -41.5v-1116h-498zM1065 326h-332v-193v-133v-74l111 74l55 39 l57 -39l109 -74v74v133v193zM647 1235q-25 0 -41 -16.5t-16 -40.5q0 -25 16.5 -42.5t40.5 -17.5h754q23 0 40 17.5t17 42.5t-17.5 41t-39.5 16h-754zM647 1022q-25 0 -41 -17.5t-16 -41.5q0 -25 16.5 -42.5t40.5 -17.5h754q23 0 40 17.5t17 42.5t-17.5 42t-39.5 17h-754z M647 807q-25 0 -41 -17.5t-16 -41.5q0 -25 16.5 -42.5t40.5 -17.5h754q23 0 40 17.5t17 42.5t-17.5 42t-39.5 17h-754zM649 133v193h-57q-25 0 -42.5 -17.5t-17.5 -42.5v-73q0 -25 17.5 -42.5t42.5 -17.5h57z" />
<glyph unicode="&#xf01b;" d="M1581 1264q59 0 102 -43t43 -103v-874q0 -59 -43 -102.5t-102 -43.5h-1257q-59 0 -102.5 43t-43.5 103v874q0 59 43 102.5t103 43.5h1257zM1389 778h-873v-96h873v96zM1389 973h-873v-96h873v96zM1579 1405q59 0 112.5 -22.5t93.5 -62.5t62.5 -93t22.5 -113v-868h-49v868 q0 49 -19.5 93t-52.5 77t-77 52.5t-93 19.5h-1253v49h1253z" />
<glyph unicode="&#xf01c;" d="M1446 1583q61 0 115.5 -23.5t94.5 -63.5t63.5 -94t23.5 -116v-1190h-49v1190q0 51 -19.5 96t-53.5 79t-79 53.5t-96 19.5h-1043v49h1043zM1065 903q16 -25 27 -61q8 -31 8 -72t-10 -78q-10 -33 -25 -53l-64 59l-59 -61l53 -49q-6 -6 -20 -6q-8 -2 -15.5 -2h-13.5 q-39 0 -72 16q-31 20 -47 43q-16 25 -26 61q-8 31 -8 70q0 41 8 72q10 37 26 61q16 25 47 45q33 16 72 17q39 0 72 -17q31 -20 47 -45zM1438 1434q61 0 105 -43t44 -105v-1132q0 -63 -44 -106.5t-105 -43.5h-983q-63 0 -106.5 43t-43.5 107v1132q0 61 43 104.5t107 43.5h983 zM1151 561q37 43 53 94q20 49 21 115q0 31 -5.5 60.5t-15.5 56.5q-10 29 -23.5 51.5t-29.5 44.5q-37 41 -88 61q-53 25 -117 25q-66 0 -117 -25q-51 -20 -88 -61q-39 -45 -55 -96q-18 -53 -18 -117q0 -61 18 -117q18 -53 55 -92q37 -41 88 -61q47 -23 117 -23q78 0 137 31 l80 -72l58 62z" />
<glyph unicode="&#xf01d;" d="M1923 780q10 -10 12 -23.5t-8 -23.5l-61 -71q-8 -10 -21.5 -11.5t-23.5 6.5l-797 654l-797 -654q-10 -8 -23.5 -7t-23.5 12l-59 71q-10 10 -8 23.5t12 23.5l874 715q10 8 25 8q14 0 25 -8l385 -315v229q0 23 16 38t39 15h166q23 0 39 -15t16 -38v-455zM1606 709 q29 -25 36 -54q4 -14 5 -26v-574q0 -23 -15.5 -39t-38.5 -16h-397v408q0 23 -16.5 38t-38.5 15h-234q-23 0 -39 -15.5t-16 -37.5v-408h-397q-23 0 -38.5 16.5t-15.5 38.5v574q-2 12 2 26q4 12 12.5 26.5t24.5 27.5l539 438q10 8 25 14q10 4 25 3t32 -17z" />
<glyph unicode="&#xf01e;" d="M1747 891q27 0 27 -29v-223q0 -27 -27 -27l-211 -22q0 -2 -4 -10v-2q-2 -4 -3 -8.5t-3 -8.5q-4 -8 -4 -14q-4 -8 -8.5 -15.5t-8.5 -17.5v-2l-4 -8l131 -166q20 -18 0 -39l-155 -158q-20 -16 -41 0l-164 133q-2 0 -4 -2q-8 -4 -15 -6q-6 -4 -13 -6t-13 -6q-4 -2 -6 -2 t-7 -2q-8 -4 -14 -6t-14 -4l-23 -211q0 -29 -28 -29h-222q-29 0 -28 29l-23 211q-4 0 -6 2q-4 2 -7 2t-7 2q-6 4 -12.5 5t-12.5 5l-2 2q-6 0 -10 4q-10 4 -27 12h-2l-164 -133q-20 -18 -39 0l-157 158q-20 20 0 39l133 166l-6 12q-6 12 -12.5 24.5t-10.5 26.5q-2 4 -3 7.5 t-3 7.5q0 2 -1 4t-1 4l-211 22q-27 0 -27 27v223q0 27 27 27l211 22q12 45 37 88l-133 164q-20 20 0 39l157 158q18 20 39 0l164 -133q2 2 4 2q2 2 4 2t3 1t4 1q8 4 15 7t15 7q4 4 8 4q10 4 17.5 6.5t15.5 6.5l23 209q0 29 28 28h224q27 0 26 -28l23 -209l2 -2h2l7 -3.5 l7 -3.5q20 -6 45 -16q4 -4 17 -8q2 -2 3 -2t3 -2l164 133q23 18 41 0l155 -158q20 -18 0 -39l-131 -164q0 -2 1 -4t1 -4q2 -2 2 -3t2 -3q0 -4 4 -8q2 -4 3.5 -8t3.5 -8l2 -3q2 -4 3 -10t5 -10q2 -6 3 -11t3 -12q2 0 2 -2zM852 580q33 -35 74 -51.5t84 -20.5h26q8 0 11 2h10 q4 0 7 1t7 1q2 0 3 1t3 1q4 2 9.5 2t9.5 2l2 2q74 23 122 86.5t48 145.5q0 51 -19.5 94t-52.5 78q-59 59 -147 69q-6 0 -12.5 1t-12.5 1q-88 0 -154.5 -55t-83.5 -139q-6 -25 -6 -49q0 -16 2 -25q0 -4 1 -7t1 -7v-8q2 -8 7 -21v-2q10 -29 24 -54t37 -48z" />
<glyph unicode="&#xf01f;" d="M1024 1501q156 0 292 -59.5t237.5 -160.5t161 -237.5t59.5 -291.5q0 -156 -59.5 -292t-161 -237.5t-237.5 -161t-292 -59.5t-292 59.5t-237.5 161t-161 237.5t-59.5 292t59.5 292t161 237t237.5 160.5t292 59.5zM1122 537h-225v-226h225v226zM1184 727q35 23 62.5 43.5 t47 45t29.5 55t10 75.5q0 61 -25.5 107.5t-68.5 77t-97.5 46t-109.5 15.5q-143 0 -229 -79t-88 -222h211v22q4 49 28.5 77t75.5 28q33 0 55.5 -19.5t22.5 -54.5q0 -45 -29.5 -69.5t-66.5 -49.5q-35 -25 -67 -61.5t-32 -106.5v-61h191q0 27 4 45t13 31.5t24.5 26t38.5 28.5z " />
<glyph unicode="&#xf021;" d="M1747 1350q66 -70 99.5 -157t29.5 -183q-2 -94 -40 -179.5t-107 -150.5l-619 -641q-35 -39 -86 -39q-35 0 -58.5 16.5t-29.5 22.5l-627 655q-70 68 -104.5 155t-34.5 178t35 178t104 157q68 68 154 103.5t182 35.5t182 -35.5t152 -103.5l45 -49l51 51q68 66 152 99.5 t176 33.5q98 0 187 -37.5t157 -109.5z" />
<glyph unicode="&#xf022;" d="M1747 1350q66 -70 99.5 -157t29.5 -183q-2 -94 -40 -179.5t-107 -150.5l-619 -641q-35 -39 -86 -39q-35 0 -58.5 16.5t-29.5 22.5l-627 655q-70 68 -104.5 155t-34.5 178t35 178t104 157q68 68 154 103.5t182 35.5t182 -35.5t152 -103.5l45 -49l51 51q68 66 152 99.5 t176 33.5q98 0 187 -37.5t157 -109.5zM1612 799q92 90 96 217q4 61 -18.5 116.5t-63.5 100.5q-45 47 -102.5 71.5t-120.5 24.5q-59 0 -113.5 -21.5t-97.5 -62.5l-170 -176l-164 178q-86 86 -213 86q-61 0 -117.5 -22.5t-99.5 -67.5q-45 -45 -67.5 -101.5t-22.5 -114.5 t22.5 -114.5t67.5 -101.5l596 -621z" />
<glyph unicode="&#xf023;" d="M356 426l2 2h-2v-2v0zM1122 1346l121 129v-123l-291 -170l-286 166v127l110 -117l17 201l102 -244l59 278l56 -258l92 224zM956 1100l355 203v-408l-355 -205l-354 205v408zM1554 371l211 -193l-252 82l150 -192l-195 90l50 -170l-107 61v338l287 166l110 -66l-157 -36 l166 -115zM1337 834l355 -205l-355 -205v-408l-354 203v410zM203 547l293 -170v-330l-111 -63l45 153l-182 -84l160 209l-271 -88l197 178l-242 -33l176 123l-174 41zM571 834l355 -205v-410l-355 -205v410l-354 205z" />
<glyph unicode="&#xf024;" d="M1188 1284l-111 -63l-71 -43l-17 145l88 248v-246l111 201v-176l96 100v-111zM842 1217l-111 63l-96 55v115l96 -100v176l111 -201v246l88 -248l-17 -149zM1006 1178l-50 -29l-43 25l48 409zM1354 1352v-459l-398 -229l-397 229v459l397 -230zM1487 -37l-96 55v109 l57 -33zM1602 6l-211 121v129l90 -53zM1696 80l-305 176v84l133 -59zM1812 524l-135 -32l-59 34l94 56zM1831 403l-232 7l-92 53l111 63zM1815 285l-261 47l-120 88l73 43zM1391 340v55l43 25l331 -244zM1368 868l395 -229l-395 -229v-459l-397 229v459zM96 528l97 58 l96 -56l-58 -32zM80 410l209 120l110 -63l-90 -53zM94 291l305 176l74 -43l-119 -86zM213 84l172 203l135 59v-84v-127v-110l-98 -58l39 133l-152 -88l119 197zM145 182l328 242l47 -29v-49zM147 639l398 229l397 -229v-459l-397 -229v459z" />
<glyph unicode="&#xf025;" d="M1794 1497q23 0 39 -15.5t16 -37.5v-866h-69q-76 0 -132.5 47t-94 112.5t-61.5 135t-36 116.5q-35 143 -115.5 223t-193.5 82l-14 2v-2q-113 -2 -194 -81.5t-116 -223.5q-10 -45 -33.5 -113.5t-61.5 -134t-93 -112.5t-129 -49v71v109v284v109v29h8q31 0 57.5 16t40.5 45 q29 59 -10 113l-90 121l-14 20h1296zM881 305h-23h-153v240q106 86 176 260v-500zM1507 305h-28h-80v504q70 -178 176 -264v-137q-53 -33 -53 -93v-10h-15zM1167 1184q37 -6 66 -24.5t50.5 -46.5t35.5 -60.5t24 -65.5v-682h-176v879zM1112 305h-149h-27v676q8 33 22.5 66.5 t36 62.5t50 48.5t67.5 25.5v-879zM1630 508q74 -39 150 -39h69v-180l-47 35l-106 79q-31 20 -64 21h-2v84zM649 305h-143v164q78 4 143 39v-203zM1737 236l106 -78l-57 -43l-154 -115v115h-162h-108h-959h-6h-82v909v113v155h-116l157 211l15 -18l55 -74l88 -119h-117v-143 v-111v-278v-109v-454h973h111h151v118z" />
<glyph unicode="&#xf026;" d="M1667 885q41 0 68.5 -28t27.5 -69v-94q0 -41 -27.5 -68.5t-68.5 -27.5h-874l362 -362q29 -29 29 -70t-29 -70l-65 -65q-29 -29 -69 -29t-69 29l-641 641q-33 33 -26 80q-6 45 26 77l641 641q29 29 69 29t69 -29l65 -65q29 -29 29 -69t-29 -68l-381 -383h893v0z" />
<glyph unicode="&#xf027;" d="M1718 262q35 0 60.5 -25.5t25.5 -62.5v-86q0 -35 -25.5 -60.5t-60.5 -25.5h-1388q-35 0 -60.5 25.5t-25.5 60.5v86q0 37 25.5 62.5t60.5 25.5h1388zM469 938q-27 27 -27 61.5t27 61.5l59 59q25 25 61 25t60 -25l256 -256v551q0 35 24.5 60.5t61.5 25.5h82 q37 0 62.5 -25.5t25.5 -60.5v-532l236 237q27 25 62.5 25t60.5 -25l59 -59q27 -27 27 -61.5t-27 -61.5l-485 -485q-29 -29 -70 -25q-41 -4 -70 25z" />
<glyph unicode="&#xf028;" d="M1718 260q37 0 62.5 -25.5t25.5 -60.5v-86q0 -37 -25.5 -62.5t-62.5 -25.5h-1388q-37 0 -62.5 25.5t-25.5 62.5v86q0 35 25.5 60.5t62.5 25.5h1388zM467 870q-25 25 -25 61t25 62l487 486q29 29 70 24q41 4 70 -24l487 -486q25 -27 25 -62.5t-25 -60.5l-59 -59 q-27 -27 -63 -27t-60 27l-238 238v-535q0 -35 -25.5 -60.5t-62.5 -25.5h-82q-37 0 -62.5 25.5t-25.5 60.5v551l-254 -254q-27 -27 -61.5 -27t-61.5 27z" />
<glyph unicode="&#xf029;" d="M2052 1245v-1157q0 -29 -18.5 -47t-46.5 -18h-1926q-29 0 -47 18t-18 47v1157l1028 -813zM1987 1481q29 0 47 -18.5t18 -47.5v-45l-1028 -811l-1028 811v45q0 29 18.5 47.5t46.5 18.5h1926z" />
<glyph unicode="&#xf02a;" d="M2255 203q8 -16 8 -28.5v-20.5v-25v-45q0 -20 -2 -31q-4 -23 -8 -28q-8 -12 -19 -17q-2 -2 -10 -2q-4 0 -6 -2h-2h-389h-121q4 8 7 19.5t7 33.5q0 8 1 19.5t1 25.5v56v28v4q0 12 -1 35t-15 51q-45 92 -201 175q-12 6 -23.5 12t-23.5 10q14 16 25.5 36.5t19.5 43.5l-16 16 q-14 18 -21 45l-6 66q-20 4 -37 20q-14 14 -25.5 42t-15.5 77q0 12 4 21q4 8 10.5 15t20.5 7h2q-4 18 -8 43q-6 45 -4 117q4 72 44 112t87 58q55 23 125 25h6h20.5t28.5 -3q6 0 19.5 -3t23.5 -7q4 0 13 -4q4 -4 7 -8t7 -8l4 -8q6 10 16 10q6 0 12.5 -3t10.5 -5 q41 -20 63.5 -62.5t22.5 -93.5q0 -37 -2 -66.5t-4 -50.5l-6 -43h2q10 0 20 -6q8 -8 12 -22q2 -8 3 -15q-2 -41 -11.5 -67.5t-22 -42t-23.5 -21.5t-17 -8h-4l-2 -21l-4 -45q-4 -20 -12.5 -32.5t-16.5 -20.5l-8 -8q2 -2 2 -3t2 -3q16 -45 44.5 -76t65.5 -54.5t82 -45t97 -47.5 q68 -35 99.5 -66.5t41.5 -54.5zM1479 397q84 -45 121.5 -83t50.5 -64q10 -20 11 -36.5t1 -27.5v-28v-56q0 -10 -1 -18t-3 -18t-4 -20.5t-4 -14.5q-6 -10 -13.5 -14.5t-11.5 -8.5q-4 -2 -11 -3t-9 -1h-482h-16h-682q27 33 27 76v246h245q49 0 85 34.5t36 85.5v119 q0 45 -28.5 78t-69.5 43q-8 6 -21.5 23.5t-19.5 46.5l-6 80q-25 4 -45 24q-16 16 -31.5 52t-19.5 98q0 14 6 24q4 10 12 18.5t25 8.5h2q-6 23 -11 53q-4 27 -6 61.5t2 81.5q4 90 52.5 139.5t107.5 71.5q68 27 154 31h10h22.5t34.5 -4q10 0 25.5 -3t29.5 -9q4 -2 7.5 -3 t7.5 -3q6 -4 9 -10.5t7 -10.5q4 -6 6 -10q8 12 21 12q8 0 15 -3t11 -5q51 -27 80 -78t29 -115q0 -47 -2 -81.5t-6 -61.5q-4 -31 -8 -53h2q14 0 24 -6q12 -12 17 -29q2 -8 2 -16q-4 -51 -15.5 -84t-26 -51.5t-27.5 -26.5t-21 -10q-2 0 -5 -2h-2l-2 -23l-4 -57 q-6 -25 -16 -40.5t-19 -25.5l-10 -10l4 -8q18 -47 46 -81t65 -61.5t82 -51t94 -48.5q16 -8 34 -16.5t36 -16.5zM758 446q0 -25 -17.5 -43t-42.5 -18h-307v-305q0 -25 -17.5 -43.5t-41.5 -18.5h-121q-2 0 -10 5q-41 6 -47 45q0 4 -1 6t-1 6v119v4v94v88h-308q-25 0 -42 18.5 t-17 42.5v119q0 27 17.5 44.5t41.5 17.5h308v305q0 27 17 44t42 17h121q25 0 42 -17.5t17 -43.5v-305h236h39h32h2q25 -2 41.5 -19.5t16.5 -42.5v-119z" />
<glyph unicode="&#xf02b;" d="M733 836q35 0 58.5 -24t23.5 -58v-84q0 -35 -23.5 -58.5t-58.5 -23.5h-330v-332q0 -35 -24.5 -58.5t-59.5 -23.5h-81q-35 0 -59.5 23.5t-24.5 58.5v332h-330q-35 0 -59.5 23.5t-24.5 58.5v84q0 35 24.5 58.5t59.5 23.5h330v331q0 35 24.5 58.5t59.5 23.5h81 q35 0 59.5 -23.5t24.5 -58.5v-331h330zM1810 922h496v-832q0 -35 -23.5 -59.5t-58.5 -24.5h-1079q-35 0 -58.5 24.5t-23.5 59.5v1323q0 35 23.5 59.5t58.5 24.5h584v-493v-82h81zM2306 1004h-496v493z" />
<glyph unicode="&#xf0000;" horiz-adv-x="1705" d="M1671 1415q49 -31 86 -94q31 -53 54.5 -148.5t19.5 -244.5q-4 -164 -64 -318q-27 -66 -67.5 -135t-101 -136t-144.5 -128t-197 -109q-113 -49 -210 -71.5t-179 -27.5t-149.5 4t-120.5 26q-127 39 -209 121q-27 -27 -51 -62q-23 -31 -48.5 -74t-49.5 -100q-45 0 -82 12 q-31 10 -56.5 34t-25.5 71q12 33 41 69q23 33 65.5 77t112.5 98q-41 98 -45 206q-2 45 5 98.5t26.5 111t55.5 116.5t91 121q86 92 181.5 143t188.5 76t179 29t151 2q35 -2 84.5 -6.5t83.5 -1.5q51 4 105.5 14t104.5 36.5t93 71.5t72 119zM1165 778q135 14 209 47t109 68 q39 39 45 86q-18 -37 -72 -66q-45 -27 -131 -49t-233 -30q-160 -10 -272.5 -64.5t-182.5 -116.5q-82 -72 -133 -161q0 -20 8 -37q8 -14 26.5 -28.5t57.5 -20.5q47 90 125 167q66 66 174 126.5t270 78.5z" />
<glyph unicode="&#xf0001;" horiz-adv-x="1705" d="M317 635v-199l172 164l261 -190l241 184l246 -168l141 133l-98 113l371 10l-84 -344l-90 111l-238 -213l-242 165l-249 -192l-261 182l-170 -162v-82h1387q16 0 26.5 -11t10.5 -27v-91q0 -16 -10.5 -27t-26.5 -11h-1511q-16 0 -26.5 11t-10.5 27v25v23v1396q0 16 10 27.5 t27 11.5h86q16 0 27 -11t11 -28v-567l172 186l261 -247l278 309l221 -162l209 260l-127 125l422 107l-24 -443l-132 117l-335 -393l-220 157l-294 -313l-261 242z" />
<glyph unicode="&#xf0002;" horiz-adv-x="1705" d="M1686 659q20 -25 8.5 -52t-45.5 -27q-18 0 -30.5 -6.5t-23.5 -12.5q-10 -8 -18 -16q-12 -14 -12 -28.5t4 -24.5q6 -12 16 -25q4 -4 3 -8t-1 -6l-2 -4q-12 -14 -29 -25q-8 -6 -16 -10q6 -4 11 -9.5t10 -9.5q4 -6 8 -10q4 -12 2 -17.5t-4 -9.5q-4 -4 -6 -2 q-16 -10 -21.5 -25.5t-7.5 -31.5q-2 -18 2 -37q0 -6 2 -14q0 -8 1 -18.5t-3 -20.5q-10 -37 -46 -54.5t-81 -21.5t-88 1t-68 13q-25 6 -41 0t-27.5 -19t-17.5 -31.5t-6 -37.5q-2 -25 -7 -39t-12 -24t-15.5 -20.5t-16.5 -26.5t-10 -35.5t-4 -36.5q-2 -20 0 -41l-680 359 q14 10 23 55t11.5 105.5t-5 125t-25.5 113.5q-2 6 -9.5 18.5t-14.5 25.5t-14 24.5t-9 15.5q-35 63 -51.5 136t-24.5 118q-2 18 -2 48t2 42q6 68 22.5 120t45 95t68.5 81t95 79q57 43 132 66.5t158 31.5t168 3t165 -19t139.5 -46t101.5 -69t68.5 -76t40.5 -69 q12 -31 24.5 -58.5t22.5 -50.5q10 -25 21 -47q12 -27 14 -43t0 -27q-4 -10 -10 -16q-6 -4 -13.5 -16.5t-11.5 -27.5t-5 -33.5t9 -33.5q10 -16 28.5 -44.5t39 -61.5t39.5 -61t29 -40zM1276 938q6 6 16.5 21.5t14.5 35t0 44t-25 48.5l-2 3v4q2 4 2 10q0 14 -2 22q-6 12 -23 17 h-10l-4 2l-6 4q2 2 12 8q-10 25 -27.5 59.5t-39.5 34.5q-8 0 -15 -4v-4q0 -2 -1 -3t1 -5h-6l-6 -2q-2 14 0 20q-6 8 -25.5 23.5t-44.5 15.5q-12 0 -16 -2l-8 -2l-2 6q0 2 -12.5 16.5t-63.5 14.5h-24.5t-26.5 -4h-2q-2 0 -2 -1t-2 -1q-4 -4 -7.5 -6t-5.5 -6t-2 -15q0 -4 2 -6 l-6 -2l-6 -2q-6 14 0 31q6 8 14 14h-6q-12 0 -26 -8h-2h-19.5t-42.5 -2q-4 0 -10 -6q-8 -4 -17.5 -7.5t-21.5 -3.5q-6 -6 -8 -16q-4 -18 2 -29l-6 -2l-8 -2q0 4 -1 18.5t3 28.5q-14 -2 -35 -9t-31 -23l-6 -11v2q-6 -10 -6 -24l-6 2h-9q2 4 4.5 13t6.5 18q-6 0 -16.5 -5.5 t-26.5 -23.5q-6 -4 -19.5 -19.5t-25.5 -19.5q0 -2 -1 -3t-1 -3q10 -2 24 -8t19 -23q4 -16 -3.5 -26.5t-15.5 -14.5l-2 6l-4 7q2 0 8 6t2 20q-4 12 -15 15.5t-18 5.5h-4q-2 0 -11 -5.5t-19 -31.5q-2 -2 -2 -4t-2 -6q-4 -8 -9.5 -19.5t-5.5 -23.5l-2 -3l-4 -8q-2 -8 0 -20v-2 l2 -4q0 -8 8 -17l-4 -4l-4 -6q-8 8 -12 21q-8 -8 -15.5 -28t3.5 -61v-2q-2 -12 -2 -24q0 -10 2 -21.5t8 -19.5q4 -4 8 -4v-6v-9q-2 0 -4 2q-2 -8 0 -25.5t24 -31.5q10 4 13 10l4 -4l6 -4q0 -6 -14 -12q8 -12 26 -14l4 2q2 2 4 2q4 4 8.5 5t8.5 5t10 5t12 5q10 4 31 8 q6 2 13.5 5.5t7.5 7.5l2 8v6l4 -4l6 -6q12 -12 26 -21q12 -8 25.5 -14t30.5 -6q4 0 6 2q-35 25 -35 53v4v8q0 2 1 3t1 3q4 18 16.5 29.5t14.5 14.5l4 -7l4 -6q-2 0 -4 -2q-4 -4 -10 -11t-11 -18q0 -4 -2 -6v-8l-2 -2q2 -27 37 -51h2h2l2 -4q6 -6 15 -10q20 -8 47 -9h12h2 q0 -2 2 -2h4q12 -4 41 -9t56 -5q8 0 14 1t12 1q23 6 31 33q4 12 6 26l2 7h6q4 0 10 2q8 2 17 10q10 10 10 33l-2 8q0 4 -2 6l6 4l6 4q4 -12 4 -14q6 2 14.5 3t12.5 5l6 6l4 -6q2 -4 6 -6q6 -6 21 -6q6 0 18 4h9h8q76 0 86 37l-4 8q-12 14 -23 14q-6 0 -6 -2l-4 15 q8 2 21.5 -2.5t23.5 -20.5zM645 811q-20 -2 -36.5 -10t-26.5 -15q4 -8 14 -27.5t26.5 -40t41 -35.5t59.5 -15h6q68 4 98 39q16 16 19.5 34.5t5.5 28.5h-2q-31 0 -48.5 8t-23.5 13q-12 -4 -20 -5q-27 0 -50.5 14.5t-33.5 24.5q-6 -8 -16.5 -11t-12.5 -3zM1137 1149 q-8 0 -20.5 -2t-22.5 -10q-8 -6 -13 -25v-4v-12l-10 6l-4 2q-4 0 -9 2t-16 -2q-23 -6 -38 -43l-5 -10l-6 2l-6 4q18 49 51 59q10 4 17.5 3t13.5 -3q4 20 14 31q14 10 30.5 13t27.5 1q6 33 24 41q14 6 27.5 1t15.5 -5l-8 -12l-2 2q-4 2 -12 4t-15 -2q-14 -6 -16 -31 q0 -2 -1 -2t-1 -4l-2 -6l-6 2h-8zM911 1219l-6 4q18 23 43 28.5t43 3.5q6 0 11.5 -1t9.5 -1q2 8 8 15q4 4 6 7t6 5t6 4l4 -6l2 -6q-6 -4 -10 -8q-10 -10 -10 -21v-8l-8 2q-2 0 -22.5 4t-43.5 -4l-18 -8q-6 -4 -17 -15zM807 1249q-14 4 -14 19h8h6q0 -8 22 -8q27 0 39 -13 q8 -12 9 -22q10 -2 25.5 -7.5t27.5 -21.5q16 -23 12 -53q-2 -27 -18 -39q-14 -6 -27 -2q-4 -10 -12 -21.5t-25 -13.5v6v8q10 0 19 15l8 16l2 6l6 -2q2 -2 6 -2q10 0 14 2q10 6 15 29q2 23 -10 43q-12 12 -33 20q-8 4 -19 4h-6v7q2 14 -4 20t-29 6q-16 0 -22 4zM846 1030 q-8 -4 -19.5 -2t-21.5 12q-6 -2 -17.5 -3t-25.5 5q-16 8 -27 31q-6 0 -14 1t-19 7q-16 16 -16 49h8h6v-4q0 -23 11 -32q6 -6 18 -7h8l8 3v-7q10 -25 23 -28q14 -6 25 -4q6 0 12 4l4 2l2 -4q12 -10 25 -11q8 0 10 2q2 0 4 3l16 12l-6 -19v-4q0 -8 2 -10q0 -4 2 -4l8 -4 q4 -2 11.5 -1t13.5 3q35 8 61 -8q18 -16 21.5 -36t3.5 -22h-6h-8v4q0 6 -4 19.5t-15 21.5q-18 14 -49 7h-6q-29 -6 -41 6q-4 6 -8 18zM987 930q18 10 36.5 3t20.5 -7l-6 -13h-2q-2 0 -4 2q-8 4 -18 5.5t-21 -2.5q-10 -4 -16 -19q-4 -12 -6 -20v-7l-8 2q-10 0 -21 -2 q-10 -2 -19.5 -7t-17.5 -15l-4 -6l-6 4q-4 4 -18.5 11t-34.5 -9l-2 -2l-4 6l-7 4q16 14 32 15t26 -3l12 -6q12 14 31 19q2 2 4 2q18 4 24 2q0 4 1.5 4t1.5 2q10 29 26 37zM1155 1018q16 23 33.5 34t32 15t23.5 4h11l-4 -14h-4q-10 0 -34.5 -6.5t-47.5 -40.5q-6 -8 -7 -16.5 t-1 -14.5q0 -2 -1 -2t-1 -2q0 -12 -6 -14q-8 -4 -12 -5h-4q-4 -2 -9 -2q-8 -4 -12 -20q0 -2 -1 -3t-1 -3h-6l-6 -2q-2 27 20 41q4 2 12 2q4 0 13 4v6q0 8 2 18.5t10 20.5zM578 922l2 -7q0 -2 -2.5 -3t-6.5 -5q-2 -2 -6 -16q-2 -4 -2 -19h-6h-6q-2 4 -1 7.5t1 7.5 q-14 4 -21 -2l-4 6l-4 6q8 4 16.5 4t14.5 -2q2 8 6 13.5t8 9.5t8 6zM717 989q10 8 20.5 6t10.5 -4l-7 -12h-2q-2 0 -3 1t-3 1l-10 -4q-6 -4 -10 -27q0 -16 -6.5 -23t-12.5 -9q-8 -4 -14 -5q-16 0 -30.5 8.5t-20.5 14.5l4 4l4 6q0 -2 2 -2q10 -8 24.5 -13t24.5 -1q4 0 8 4 t4 16q0 6 1 10.5t1 8.5q7 14 15 20z" />
<glyph unicode="&#xf0003;" horiz-adv-x="1705" d="M1051 1403l2 -4q-10 8 -21 8h-4q-29 0 -33 4v2l-2 4q0 4 -8 6q10 0 16 -2q27 -4 36.5 -9t11.5 -7zM979 1411q0 -2 1 -3t1 -3l6 -6q-6 2 -18 2h-8h-3q0 2 -1 3t-1 5q4 2 11.5 3t11.5 -1zM1032 1393q8 0 21 -15q4 -4 8 -6q-6 0 -19 8q-6 6 -24 11h10zM940 1389q4 0 6 -1.5 t6 1.5l4 -13q2 -4 2 -6t3 -4q2 -4 3 -7t7 -7h-4q-10 -6 -13 -9q0 -4 -1 -5t-1 -5q-8 12 -32 15q-23 2 -42.5 11t-23.5 15h2q2 0 4 2q6 2 14.5 4t18.5 11h4q2 0 5 1t9 1h13.5t15.5 -4zM291 297q-117 188 -117 410q0 162 61.5 303t167 247.5t248 168t303.5 61.5 q162 0 303.5 -61.5t248 -168t168 -248t61.5 -302.5q0 -111 -29 -214.5t-88 -195.5q4 8 8 25v10q16 14 29.5 40.5t17.5 73.5v5q0 27 -16 53q2 14 3 28.5t1 30.5q0 47 -22.5 86t-63.5 60l-10 5t-17 5q-25 14 -59 18h-33h-8q-14 0 -29.5 -2t-32.5 -6q-4 0 -6 -1t-6 -1 q-4 -2 -12 -2q-6 0 -6 2l-2 4l-16.5 16.5t-18.5 14.5q-16 4 -14 4q-4 0 -9.5 1t-15.5 9q-27 20 -72 4q0 2 1 5t1 6l2 8h-8l-30 6l-5 2q-6 2 -13 2h-13q-18 0 -27.5 -4t-11.5 -4l-2 -2l-2 -4v-2q-4 4 -12.5 7t-18.5 5q-16 10 -36.5 15t-33.5 5q-14 2 -24 2h-14h-9 q-10 0 -22 -1t-25 -3q-2 2 -2 4v2q-4 12 -33 13q-12 0 -32 -4q-4 6 0 30l12 13q8 4 10 14t0 20q-6 16 -24 11q-12 -6 -22.5 -16.5t-16.5 -20.5l-4 -4l-2 -2q-4 -4 -15.5 -6.5t-23.5 -2.5h-9q-6 2 -23.5 24t-12.5 42q2 8 4 13t4 12q4 10 5 19t-9 22l2 2l2 2q8 4 19 11t20 17 q4 4 20 0q4 0 10.5 -1t12.5 -1q12 -2 18 1t12 7q2 2 13 7q31 12 59 -11q12 -10 25 -14l-2 -4q-2 -12 1 -27.5t19 -23.5q10 -8 19 -8q10 0 12 10t2 20q0 33 -25 51q-4 4 -4 5q0 2 6 8l6 6q2 2 10.5 12t18.5 22.5t20.5 21.5t18.5 14q4 0 6 8q2 6 -4 22l-6 8q2 0 4 3l2 2h4 l6 -7q2 0 3 -1t3 -1q8 0 10.5 6.5t4.5 10.5v4q4 4 16 4h2h6l2 4q2 4 0 8l-4 8q-6 6 -6 7q0 2 5 5t22 7q6 2 18 2q16 0 21 6q2 8 -2 16q-14 20 -15 33v4q2 -2 11 -6q10 -4 17 0t11 8v-8q-2 -10 6.5 -14t14.5 -6q2 -2 4 -2t4 -2q10 -6 22 6q2 0 3.5 1t3.5 1q6 6 6 10 q-2 8 -10 8q-4 0 -13 4q-16 12 -16 25q0 6 -2 10q-8 4 -12 2q-12 0 -17 4l-20 10q-12 6 -27.5 15.5t-19.5 15.5l-5 4h-4q-2 0 -4 -1t-6 -1q2 4 1 10.5t-7 22.5l-2 4q-10 14 -57 23q-35 6 -54 6q-10 0 -17 -1t-17 -3q-10 0 -15 -2h-6q-10 0 -41 -2t-72 -9.5t-87 -23 t-87 -41.5q-29 -20 -43 -49t-20 -45q-2 -2 -2 -6l-18.5 -18.5t-28 -37t-21.5 -51.5t2 -59l2 -2q0 -2 2 -9q4 -12 4 -30q0 -12 5.5 -29.5t11.5 -35t14 -33t17 -23.5l2 -2h8l2 4q2 2 4 9t-2 24v2h-2q-6 6 -13.5 16t-9.5 16q-4 4 -3 21.5t1 28.5q4 -4 8 -7q0 -2 -1 -3t-1 -5 q-8 -23 11 -35q6 -4 22.5 -35.5t13.5 -68.5q-2 -6 2.5 -13t16.5 -12q8 -2 26.5 -18t36.5 -33q14 -10 35 -10q27 0 41 20h2q4 -6 15 -8q8 -4 14 -8t8 -12q0 -2 2 -10.5t17 -14.5q-78 -53 -82 -151q-4 -47 2 -86q-20 -27 -21 -60v-4q4 -57 22.5 -89t37.5 -48v-10l2 -8 q2 -18 12 -37q-8 -10 -19.5 -19.5t-29.5 -19.5l-13 4q-29 14 -48 25.5t-29 21.5q4 8 8 25l2 10q14 14 27.5 40.5t17.5 73.5v5q0 31 -14 53q0 14 1 28.5t1 30.5q0 47 -22.5 86t-63.5 60q-4 2 -10.5 5t-16.5 5q-16 10 -31.5 13t-27.5 5h-33h-8q-25 0 -60 -7t-66.5 -26.5 t-54 -53.5t-24.5 -85q-2 -33 0 -63q-14 -25 -14 -51v-5q4 -47 17 -73.5t30 -40.5v-10q4 -17 8 -25zM633 203q-16 -6 -27 -15q-96 -49 -129 -110v-2q-10 -23 -12 -40.5t-2 -23.5v-8h-145.5t-53.5 -2h-114q-6 0 -7 2q-6 0 -8 6q-4 8 -4 29v41v10t4 12q4 10 19.5 26.5 t54.5 37.5q10 4 18.5 8t16.5 8q25 12 46 23.5t38 25.5q33 25 49 68l2 4l-4 4q-2 0 -8.5 7.5t-10.5 21.5l-4 43h-6q-8 2 -16 10q-6 8 -12.5 22.5t-8.5 39.5q0 4 2 8q4 8 13 8h8l-2 8q-2 10 -4 23q-2 10 -3 26.5t1 36.5q2 37 22.5 58.5t45 30.5t45 11.5t22.5 2.5h4h24 q8 -2 16.5 -3.5t12.5 -5.5l6 -6q2 -2 2 -4l4 -14l9 12l2 2q6 0 10 -2q20 -10 32.5 -31.5t12.5 -48.5q0 -23 -1 -39t-3 -26q-2 -12 -4 -23v-8h8q6 0 10 -8q2 -4 2 -8q-4 -49 -19.5 -60.5t-17.5 -11.5h-6l-4 -43q-2 -12 -10 -21q-4 -4 -6 -8l-4 -4v-4q14 -37 38.5 -58.5 t55.5 -37.5zM1776 102q4 -8 4 -22v-41q0 -10 -2 -17.5t-4 -11.5q0 -6 -7 -6q-2 -2 -8 -2l-114 2v-2q-10 2 -101 2h-98v6q0 10 -1 26.5t-11 39.5q-2 0 -2 2q-23 41 -74 78q-27 20 -53 32q-14 8 -29 15q31 16 55.5 37.5t38.5 58.5v4l-4 4q-2 4 -6 8q-8 8 -10 21l-4 43h-7 q-2 0 -17 11t-19 61q0 4 2 8q4 8 10 8h10l-2 8q-2 10 -4 23q-2 10 -3 26.5t1 36.5q2 33 17.5 52.5t37 30.5t42 15.5t30.5 4.5h8h4h25q6 -2 15 -3.5t13 -5.5q2 -2 2 -3t2 -3q0 -2 3 -4l6 -14l8 12q0 2 2 2q6 0 10 -2q43 -23 43 -80v-37q-2 -12 -2 -22t-2 -17q-2 -8 -2 -12v-8 h8q2 0 6 -4q6 -6 6 -12q-4 -49 -19 -60.5t-17 -11.5h-7l-4 -43q-2 -12 -10 -21q-4 -4 -6 -8l-4 -4v-4q16 -43 49 -68q18 -14 38.5 -25t45.5 -24q8 -4 16.5 -8t18.5 -8q37 -18 53.5 -36t22.5 -28zM1366 37q4 -8 4 -15.5v-11.5v-49v-22q-4 -16 -4 -15q-4 -6 -12 -10 q0 -2 -2 -2h-6h-783h-6q-2 0 -2 2q-8 4 -10 10q-4 0 -4 15q-2 6 -2 22v49v11.5t4 15.5v6q8 14 28.5 34.5t67.5 45.5q12 6 23.5 12t21.5 10t18.5 8.5t16.5 8.5l31 18q10 4 28 19q55 39 72 92l2 4l-6 4q-4 4 -8 10q-4 4 -8.5 10.5t-6.5 16.5l-4 53h-6l-7 2t-15.5 11.5 t-16.5 28t-10 50.5q2 4 4 11q4 12 16 12h9l-2 8q0 2 -6.5 30.5t-2.5 80.5q4 82 86 112q10 4 21.5 7t23.5 8q20 4 29 4h12h7h12t20 -2q8 0 19.5 -3.5t15.5 -7.5q4 -2 5 -4t3 -4t2 -4l6 -14l9 12q2 4 4 4q6 0 10 -4l2 -2q2 0 4 -2q2 0 2 -1t2 -1q49 -33 49 -98q0 -27 -1 -46.5 t-3 -33.5q-2 -16 -4 -31v-8h8q12 0 15.5 -10.5t3.5 -12.5q-2 -33 -10.5 -51t-16.5 -27.5t-15 -11.5l-7 -2h-6l-5 -53q-4 -16 -12 -27l-10 -10l-4 -4v-4q18 -53 69 -90l2 -2q16 -14 29 -19l31 -18q8 -4 15 -7t18 -8q10 -6 22 -12t25 -12q16 -8 22 -12q35 -23 51.5 -40.5 t22.5 -29.5v-4z" />
<glyph unicode="&#xf0004;" horiz-adv-x="1705" d="M954 1554q166 0 313.5 -63.5t256 -172t172 -254.5t63.5 -312t-63.5 -313.5t-172 -256t-256 -172t-313.5 -63.5t-312 63.5t-254.5 172t-172 256t-63.5 313.5t63.5 312t172 254.5t254.5 172t312 63.5zM1501 313q72 90 113 202t41 237q0 131 -47 254q-16 -4 -37 -5h-19 l-2 -4h-10h-6h-12q-18 -4 -35 13h-10h-15q-14 -2 -32.5 -3t-32.5 -3q-8 -2 -37 -3q-8 0 -31.5 1.5t-40.5 9.5h-6q-4 0 -10 1t-17 1h-22t-25 -2q-23 0 -42 -1t-33 1q-10 2 -17.5 2t-11.5 2q-4 -14 -9 -38t-16 -50q-10 -29 -7 -47.5t5 -26.5q2 -4 4 -13.5t0 -19.5l6 -6 q12 -16 17 -22q10 -10 16 -17.5t15 -15.5l4 -2q16 -14 54 -53t73 -101q4 -4 20.5 -21.5t28.5 -31.5q8 -6 46 -35t66 -86q14 -25 33 -56.5t37 -58.5q2 -2 4 -2zM1585 1053q-45 98 -121 176q-2 -2 -3 -2t-3 -2v-4l-6 -7l-8 -4q-2 -2 -4 -3t-4 -3q-14 -12 -37 -8q-4 0 -13 -4 l-12 -8q-10 -8 -24.5 -18.5t-24.5 -18.5q-14 -12 -37.5 -24.5t-44.5 -16.5q-6 0 -22 -10q25 0 37 -2t18 -4q8 0 22.5 2t30.5 2q2 0 29.5 -3.5t75.5 -19.5l20 -4t19.5 -2h19.5l2 -2h2q2 0 2 -1t2 -1h21.5t33.5 -4q14 0 23 -4h6zM1423 1270q-94 86 -213.5 134t-255.5 48 q-135 0 -253.5 -48t-213.5 -132q16 -4 28.5 -11.5t19.5 -11.5l8 -2q14 -10 37 -16l20 -8q47 -10 71.5 -22.5t26.5 -12.5q10 -6 16.5 -11.5t10.5 -9.5q10 0 19.5 -5t13.5 -7q6 -4 14 -6q6 -2 13.5 -4t17.5 0q29 6 57 -10q14 10 27.5 18t21.5 12v6l-4 5l-2 4q-2 4 -2 9v9 q0 2 -2 4q-6 2 -6 15q-4 8 -4 14q-2 12 4 18v2q-2 16 0 25.5t2 11.5q4 29 27.5 40t40.5 13q16 -2 40.5 -13t28.5 -42q2 -2 2 -8v-27v-2q6 -8 4 -16q0 -8 -4 -16q0 -12 -6 -15q0 -2 -1 -2t-1 -2v-9t-2 -9l-2 -4l-4 -5v-6q8 -4 20.5 -11t24.5 -17q27 12 51 8q8 -2 16.5 0 t14.5 4q8 2 14 6q4 2 13.5 7t19.5 5q4 4 10 9.5t17 11.5q2 0 27.5 12t72.5 23q10 4 18 8q20 8 37 16l8 2q4 4 15.5 10.5t25.5 10.5zM469 248q74 -72 167 -120t202 -67v7q-2 8 0 15t4 11q0 2 1 2t1 2q-4 29 -9.5 62t-13.5 73q-14 61 -5 107.5t13 56.5q0 18 1 43t1 31 q-6 31 -8 63.5t0 67.5q-2 0 -4 -2q-16 -8 -22 -14l-13 -11q-12 -10 -22 -19t-31 -32q-18 -18 -29.5 -25t-21.5 -12l-8 -4q-6 -4 -14.5 -13t-12.5 -17q-25 -41 -35 -51.5t-22 -14.5q-4 -4 -11.5 -7t-17.5 -13q-16 -14 -27.5 -28.5t-21.5 -25.5q-10 -12 -18 -24 q-8 -18 -13.5 -26.5t-9.5 -14.5zM446 1233q-80 -86 -124 -186h4q4 4 11 5t11 1q8 4 27 4q14 4 29.5 5t21.5 -1l4 2h2l2 2q10 0 20.5 1t20.5 3t21 4q45 14 73 19q16 2 29 2q29 0 45 -4q6 2 18.5 4t34.5 2q-16 10 -22 10q-20 4 -44 16.5t-38 24.5q-10 8 -24.5 18.5t-24.5 18.5 q-12 8 -13 8q-8 4 -12 4q-20 -4 -37 8q-2 2 -4 3t-4 3l-8 4l-4 5l-2 6q-9 4 -13 8zM305 1010q-51 -125 -51 -258q0 -129 43 -242t119 -205q2 2 10 6q0 2 4 2q18 27 36.5 60t33.5 57q14 29 31.5 50.5t34 35.5t29.5 22.5t17 12.5q12 14 28.5 31.5t21.5 21.5q35 61 73.5 100 t55.5 54l2 2q8 8 14 15t16 18q4 6 17 22q4 4 8 6q-4 10 -2 18.5t2 12.5q4 10 7 28.5t-7 47.5q-10 27 -15.5 50t-7.5 38q-6 -2 -13 -2t-17 -2q-14 -2 -35 -1t-43 1q-14 2 -27.5 2h-25.5q-20 0 -26.5 -1t-8.5 -1q-14 -8 -35 -9.5t-31 -1.5h-18t-15 3q-12 2 -31.5 3t-33.5 3 h-12h-13q-16 -16 -34 -13h-13h-6h-8l-4 4q-33 -2 -48.5 1.5t-21.5 7.5zM913 51q10 0 20.5 -1t20.5 -1q16 0 29.5 1t30.5 3v4q-2 4 -2 11v4q0 10 1 19t9 32q2 12 2 29q0 14 -1 31.5t-3 39.5q-2 16 -4 22.5t-4 10.5q-6 12 -7 26.5t5 61.5q2 8 3 20.5t-3 20.5l-4 8 q-4 10 -8.5 22.5t-6.5 39.5q-2 29 -3 42t-5 29l-2 17q-4 16 -8 26q-2 8 -4 15.5t-4 17.5q-4 -10 -6.5 -17t-4.5 -16q-4 -10 -8 -26l-2 -17q-4 -16 -5 -29.5t-3 -41.5q-2 -27 -6 -39.5t-8 -22.5l-4 -8q-4 -8 -3.5 -20.5t3.5 -20.5q8 -47 6 -61.5t-6 -26.5q-4 -4 -6.5 -10 t-4.5 -23q-4 -41 -2 -71.5t2 -32.5q6 -18 7 -27.5t1 -19.5v-4q0 -6 -2 -11v-6zM1090 63q104 20 197 70.5t165 124.5q-6 6 -16 33q-2 0 -19.5 23.5t-48.5 52.5q-10 10 -17.5 13t-11.5 7q-12 4 -22 14.5t-35 51.5q-4 8 -11 17t-16 13l-8 4q-10 4 -21.5 11.5t-27.5 25.5 q-23 23 -33 32t-22 19l-13 11q-6 6 -22 14q0 2 -4 2q2 -35 0 -67.5t-8 -63.5q0 -6 1 -30.5t1 -43.5q4 -10 13 -56t-5 -108q-8 -41 -13.5 -74.5t-7.5 -60.5v-4q2 -4 4.5 -11t0.5 -15v-5z" />
<glyph unicode="&#xf0005;" horiz-adv-x="1705" d="M1090 987v-987h-353v20q16 4 41 19q25 14 43 31q45 39 74 100q25 55 25 129q0 78 -31 133q-27 51 -72 86h4h82v80v14q0 63 -26 123q-12 29 -30 50.5t-40 39.5q-8 6 -14.5 9.5t-10.5 7.5l-2 2q-10 6 -21 12t-22 10v410h94v133h173v174h53v-174h166v-133h94v-209h-111h-116 v-80zM1595 0h-424v987h111h313v-987zM821 201q-18 -41 -53 -70q-6 -6 -14.5 -12t-16.5 -10q-18 -10 -45 -21q-41 -14 -78 -16v-72h-14h-41h-14v72q-41 2 -86 16q-43 14 -78 47q-33 29 -51 74q-16 45 -17 100v15h15h108h15v-15q0 -59 24 -90q23 -31 70 -33v205 q-16 4 -33.5 10.5t-36.5 12.5q-39 14 -72 41q-35 25 -55 63q-20 41 -20 94q0 51 20 86q20 41 51 64q31 25 74 37q31 10 72 14v59v15h14h41h14v-15v-59q37 -4 70 -12q31 -10 53 -25l19 -12q29 -23 49 -64q16 -39 16 -88v-14h-12h-72h-37h-14v14q-4 47 -22 66q-14 16 -50 20 v-176q18 -6 38 -11t36 -13q23 -8 49 -23q8 -4 14.5 -9t12.5 -9q35 -25 55 -64q20 -41 21 -94q-1 -55 -19 -98zM545 698q-35 -2 -58 -18q-23 -18 -22 -62q0 -20 8 -30q4 -8 9 -13.5t12 -11.5q14 -10 30 -16q4 -2 10.5 -3t10.5 -3v157zM676 213q27 20 26 72q0 25 -8 39 q-10 16 -22 24q-14 12 -35 19q-6 4 -12.5 5t-10.5 3v-189q39 7 62 27zM465 618q0 43 22 62q23 16 58 18v-157q-4 2 -10.5 3t-10.5 3q-16 6 -30 16l-11.5 11.5t-9.5 13.5q-8 10 -8 30z" />
<glyph unicode="&#xf0006;" horiz-adv-x="1705" d="M459 829q-51 2 -74 3.5t-27 3.5q-4 0 -19 9t-34.5 21.5t-38 27.5t-28.5 30q23 6 49 12q23 4 52.5 5t63.5 -9q57 -14 74 -21.5t19 -9.5q-2 2 -6.5 6t-8.5 8q-10 16 -28 29q-16 10 -40 19.5t-59 13.5q-72 4 -116.5 1t-53.5 1q-20 8 -43 31q-18 18 -40.5 55t-41.5 98 q33 -23 66 -35q29 -10 58.5 -16t52.5 6q-43 14 -80 39q-31 23 -58.5 56.5t-38.5 86.5q-4 25 2.5 49.5t14.5 46t16 36t8 16.5q6 -10 17 -25q10 -12 22.5 -28.5t32.5 -36.5l27 -27q-2 -35 4 -65q4 -27 15 -52.5t34 -39.5q-4 35 -6 63q-2 25 -4 49.5t2 36.5q0 -2 12 -13.5 t68 -49.5q8 -43 16 -82q8 -35 18.5 -71t22.5 -60l20 -21q-2 29 -4 61q-2 29 -3 62t1 68q20 -14 47 -37q23 -20 53.5 -50t65.5 -77q-6 -49 -8 -88q-4 -35 -3 -68t9 -49q6 29 14 55q6 23 12.5 46.5t14.5 39.5q6 -8 14 -18q14 -20 29 -66q-8 -27 -16 -49q-6 -20 -10.5 -41.5 t-0.5 -36.5q2 12 9 21q4 8 12 15t20 9q-2 -4 -2 -12t-1 -21.5t3 -35.5q2 -35 -4 -82t-10 -82h-18q-10 18 -32 41.5t-56 46.5q16 2 30 2q27 0 41 -10q-4 25 -26 45q-18 16 -58.5 31.5t-109.5 15.5q14 12 37 20q18 6 46.5 10.5t69.5 -6.5q-12 12 -28 21q-14 8 -33.5 14 t-46.5 8zM1765 1427q29 0 50.5 -21.5t21.5 -49.5v-1284q0 -31 -21.5 -51.5t-50.5 -20.5h-737v6v19v14v12v193v14v4h602q12 0 22.5 9.5t10.5 23.5t-10.5 23.5t-22.5 9.5h-614q-4 6 -39 40.5t-119 59.5q10 12 13 25.5t3 21.5v33q0 25 -12 40t-31.5 24.5t-46 12.5t-57.5 5v766 q0 29 21.5 50t50.5 21h966zM1630 553q12 0 22.5 9t10.5 24q0 14 -10.5 23t-22.5 9h-690q-33 0 -33 -32q0 -33 33 -33h690zM1630 844q12 0 22.5 10t10.5 23q0 14 -10.5 24t-22.5 10h-690q-14 0 -23.5 -10t-9.5 -24q0 -12 9.5 -22.5t23.5 -10.5h690zM1630 1137q12 0 22.5 9 t10.5 23t-10.5 23.5t-22.5 9.5h-690q-33 0 -33 -33t33 -32h690zM926 324q10 -6 16 -12.5t10 -10.5l9 -8v-23v-8v-4v-14v-193v-12v-14v-19q0 -4 -3 -6q-8 -10 -36.5 -19.5t-73.5 -15.5t-102.5 -10t-120.5 -4q-70 0 -130.5 4t-106.5 12t-72.5 17.5t-26.5 21.5v287q14 16 37 33 q20 14 53 27.5t82 23.5v90q-12 2 -12 8v33q0 8 53 13t127 5h30h13h14q10 0 20.5 -1t20.5 -1q37 -4 59.5 -8t22.5 -8v-33q0 -4 -18 -8v-90q49 -10 82 -24.5t53 -28.5zM446 244q-14 0 -26 2q-10 2 -23.5 3t-23.5 5v-205q8 -4 18 -8q18 -6 55 -6v209zM686 494q10 2 20.5 2h20.5 h8q45 4 45 8l-53 -4h-33h-8h-14h-13h-28h-60q-37 0 -62.5 1t-25.5 3q-2 -2 11.5 -4t33.5 -4q23 0 48.5 -1t54.5 -1h28h13h14z" />
<glyph unicode="&#xf0007;" horiz-adv-x="1705" d="M1747 1423q76 -4 118 -58t44 -132q0 -41 -14.5 -77t-40 -62.5t-61.5 -43t-75 -16.5l-198 19l22 172q0 2 5 33.5t26.5 67.5t61.5 65.5t112 31.5zM1602 1434q-43 -25 -68 -60t-37 -67q-14 -37 -18 -78l-25 -172l-2 -21l-2 -18l-113 -813q-23 -197 -190 -201h-4l-49 6 q-66 16 -107 67.5t-43 117.5q0 41 14.5 76.5t40 63t60.5 44t76 16.5l2 51l-738 76l109 785q6 57 29.5 94t51 58.5t52.5 30.5t31 11l358 -26h21l20 -2zM1243 563q4 0 4 4t-2 6q-14 6 -31 15q-14 6 -33.5 12t-43.5 14q-49 14 -111 31q-31 8 -62.5 12.5t-66.5 10.5 q-33 4 -65.5 11t-65.5 11q-16 2 -30.5 3t-30.5 -1q-31 -4 -56 -6q-27 -4 -47 -9t-35 -11q-8 -4 -12 -7.5t-8 -5.5q-4 -4 -8 -4q-2 0 -4 -2q0 -2 4 -6q2 0 8 -2q8 -4 24 -6q8 -2 16.5 -3t18.5 -5t21.5 -5.5t23.5 -5.5q10 -2 23.5 -3t25.5 -3q16 -4 29.5 -5t30.5 -3 q31 -4 62.5 -3t66.5 1q33 0 65.5 -5t63.5 -7q31 -4 59.5 -6t52.5 -7zM1270 766q4 0 4 4q2 2 -2 6q-12 4 -29 12q-14 6 -34.5 12.5t-43.5 14.5q-25 6 -53.5 14.5t-58.5 16.5q-63 16 -127 24q-35 4 -68 11.5t-65 11.5q-16 2 -30.5 3t-29.5 -1q-16 0 -30.5 -2t-26.5 -4 q-27 -4 -47.5 -9.5t-34.5 -11.5q-8 -4 -12 -7t-9 -5q-4 -4 -8 -4q-2 0 -2 -2q-2 -2 2 -6q2 0 8 -2q8 -4 25 -6q8 0 16.5 -2.5t18.5 -6.5t21.5 -5t23.5 -5q12 -2 24.5 -3t26.5 -3q14 -4 27.5 -5t29.5 -3q31 -4 64 -3t65 1q35 0 67 -4t62 -9q31 -4 60 -6t55 -6q25 -4 44.5 -5 t35.5 -3q17 -2 31 -2zM1300 969q4 0 5 4q0 4 -2 6q-14 4 -31 12q-14 6 -33.5 12.5t-44.5 14.5q-49 14 -111 31q-61 14 -129 24q-33 4 -65.5 11.5t-65.5 11.5q-16 2 -30.5 3t-30.5 -1q-16 0 -29.5 -2t-27.5 -4q-25 -4 -45.5 -9.5t-34.5 -11.5q-8 -4 -13.5 -6t-9.5 -4 q-6 -2 -8 -4q0 -2 -2 -4q0 -2 4 -6q2 0 8 -3q8 -4 25 -6q8 0 16 -2t19 -6q10 -4 21 -5t22 -5q12 -2 25 -3t26 -3q14 -4 28.5 -5t30.5 -3q31 -4 62.5 -3t66.5 1q33 0 65.5 -4.5t63.5 -8.5t59.5 -6t53.5 -6zM1329 1171q2 0 6 5q0 2 -4 6l-28 14q-14 6 -34 12t-44 15 q-25 6 -52.5 14t-58.5 16q-31 6 -62.5 12.5t-66.5 10.5t-66.5 11t-64.5 11q-16 2 -30.5 3.5t-30.5 -1.5q-16 0 -29.5 -2t-28.5 -4q-27 -4 -47 -9t-35 -11l-12 -6l-8 -4l-8 -4q0 -2 -1 -2.5t-1 -2.5t4 -6q2 0 8 -2q12 -4 22 -6q8 0 17.5 -2t19.5 -6t21.5 -5t21.5 -5 q12 -2 24.5 -3t26.5 -3q14 -4 28.5 -5.5t31.5 -3.5q31 -4 62.5 -3t66.5 1q33 0 65.5 -4t63.5 -8t59.5 -6t53.5 -6t45 -5t34 -3q17 -3 31 -3zM1012 406q-57 -31 -91 -87.5t-32 -123.5q2 -53 23.5 -97.5t58.5 -77.5l-631 66l-21 2l-18 2l-100 10q-94 4 -146.5 54.5 t-54.5 136.5q-2 41 12.5 76.5t40.5 64.5q59 59 135 60l166 -17l19 -2l20 -2z" />
<glyph unicode="&#xf0008;" horiz-adv-x="1705" d="M1575 1503q27 0 46 -19.5t19 -45.5v-1370q0 -29 -19 -47.5t-46 -18.5h-1120q-29 0 -47.5 18.5t-18.5 47.5v168h96q47 0 81 33.5t34 80.5t-34 82t-81 35h-96v164h96q47 0 81 33.5t34 80.5t-34 82t-81 35h-96v164h96q47 0 81 34t34 81q0 49 -34 82.5t-81 33.5h-96v181 q0 27 18.5 46t47.5 19h1120zM1405 713q0 33 -33 32h-586q-33 0 -32 -32v-15q0 -33 32 -32h586q33 0 33 32v15zM1405 969q0 33 -33 32h-586q-33 0 -32 -32v-15q0 -33 32 -32h586q33 0 33 32v15zM1405 1225q0 33 -33 32h-586q-33 0 -32 -32v-15q0 -33 32 -32h586q33 0 33 32 v15zM319 1092q-20 0 -34.5 14t-14.5 35q0 23 14.5 37t34.5 14h70h96q20 0 35 -14.5t15 -36.5q0 -20 -14.5 -34.5t-35.5 -14.5h-96h-70zM319 696q-20 0 -34.5 14.5t-14.5 34.5q0 23 14.5 37.5t34.5 14.5h70h96q20 0 35 -14.5t15 -37.5q0 -20 -14.5 -34.5t-35.5 -14.5h-96h-70 zM389 301h-70q-20 0 -34.5 14.5t-14.5 34.5q0 23 14.5 37t34.5 14h70h96q20 0 35 -14t15 -37q0 -20 -14.5 -34.5t-35.5 -14.5h-96z" />
<glyph unicode="&#xf0009;" horiz-adv-x="1705" d="M1683 229q25 -29 0 -53l-159 -166q-10 -10 -26.5 -10t-27.5 10l-329 346q-70 -45 -151 -68.5t-169 -23.5q-125 0 -235.5 48t-192.5 132t-129 197t-47 242t47 241.5t129 196.5t192.5 132t235.5 48t235.5 -48t192.5 -132t130 -196.5t48 -241.5q0 -88 -23.5 -168t-64.5 -152 zM821 449q88 0 166 33.5t135.5 93t90 138.5t32.5 169t-32.5 168.5t-90 137t-135.5 92.5t-166 34t-164.5 -34t-134 -92.5t-91.5 -137t-34 -168.5t34 -169t91.5 -138.5t134 -93t164.5 -33.5z" />
<glyph unicode="&#xf000a;" horiz-adv-x="1705" d="M954 1501q156 0 292 -59.5t237.5 -160.5t161 -237.5t59.5 -291.5q0 -156 -59.5 -292t-161 -237.5t-237.5 -161t-292 -59.5t-292 59.5t-237 161t-160.5 237.5t-59.5 292t59.5 292t160.5 237t237 160.5t292 59.5zM838 1083q0 -10 8 -10h231q10 0 10 10v195q0 8 -10 8h-231 q-8 0 -8 -8v-195zM1180 414q0 8 -11 8h-82v565q0 10 -10 10h-12h-219h-94q-10 0 -11 -10v-172q0 -8 11 -8h86v-385h-86q-10 0 -11 -8v-172q0 -10 11 -11h417q10 0 11 11v172z" />
<glyph unicode="&#xf000b;" horiz-adv-x="1705" d="M1749 1262q0 -33 -33 -33h-1255q-33 0 -33 33v92q0 31 33 30h1255q33 0 33 -30v-92zM319 1262q0 -31 -32 -31h-94q-12 0 -21.5 8t-9.5 23v92q0 14 9 22t22 8h94q33 0 32 -30v-92zM1749 893q0 -12 -9 -21.5t-24 -9.5h-1255q-14 0 -23.5 9.5t-9.5 21.5v94q0 12 9 21.5 t24 9.5h1255q14 0 23.5 -9.5t9.5 -21.5v-94zM319 895q0 -33 -32 -33h-94q-12 0 -21.5 9.5t-9.5 23.5v92q0 12 9 21.5t22 9.5h94q14 0 23 -9.5t9 -21.5v-92zM1749 526q0 -33 -33 -32h-1255q-33 0 -33 32v92q0 31 33 31h1255q33 0 33 -31v-92zM319 526q0 -31 -32 -30h-94 q-12 0 -21.5 8t-9.5 22v92q0 14 9 22.5t22 8.5h94q33 0 32 -31v-92zM1749 158q0 -12 -9 -21.5t-24 -9.5h-1255q-14 0 -23.5 9t-9.5 22v94q0 12 9 21.5t24 9.5h1255q14 0 23.5 -9.5t9.5 -21.5v-94zM319 158q0 -12 -9 -21.5t-23 -9.5h-94q-12 0 -21.5 9t-9.5 22v94 q0 12 9 21.5t22 9.5h94q14 0 23 -9.5t9 -21.5v-94z" />
<glyph unicode="&#xf000c;" horiz-adv-x="1705" d="M1853 1130q18 0 30.5 -13t12.5 -30v-1044q0 -18 -12 -30.5t-31 -12.5h-241q-18 0 -33 10q-6 8 -8 18.5t-2 14.5v1245h94q16 0 29.5 -12t13.5 -31v-1155h53v1040h94zM1518 43q0 -4 1 -18.5t9 -24.5h-1473q-18 0 -30.5 12.5t-12.5 30.5v1346q0 16 12.5 29.5t30.5 13.5h1418 q18 0 31.5 -13.5t13.5 -29.5v-46v-26v-133v-27v-27v-1040v-47zM866 264h-698v-90h698v90zM866 502h-698v-90h698v90zM866 739h-698v-90h698v90zM866 1210h-698v-276h698v276zM1331 264h-323v-90h323v90zM1331 502h-323v-90h323v90zM1331 739h-323v-90h323v90zM1331 977h-323 v-90h323v90zM1331 1214h-323v-88h323v88z" />
<glyph unicode="&#xf000d;" horiz-adv-x="1705" d="M1774 1280q37 0 61.5 -25.5t24.5 -60.5v-4v-21v-1083q0 -35 -25 -60.5t-61 -25.5h-1639q-35 0 -59.5 25.5t-24.5 60.5v1083v21v4q0 35 24.5 60.5t59.5 25.5h1639zM170 1186l768 -633q4 -4 12 -4q6 0 13.5 1t13.5 7l764 631zM139 137l525 527l-527 434zM1718 90l-526 528 l-160 -133q-33 -27 -76 -26q-31 0 -50 10t-23 14l-150 123l-516 -520zM1769 1096l-507 -420l507 -510v930z" />
<glyph unicode="&#xf000e;" horiz-adv-x="1705" d="M1772 1282q37 0 62.5 -26.5t25.5 -61.5v-1106q0 -37 -26 -62.5t-62 -25.5h-1633q-37 0 -62.5 25.5t-25.5 62.5v1106q0 35 25.5 61.5t62.5 26.5h1633zM139 1190l-2 -195h1628v193zM1765 94v688h-1624v-688h1624zM1065 586q6 -2 10 -6q4 -8 4 -13q0 -6 -2 -10l-6 -6 q-4 -4 -8 -4q-2 -2 -10 -2t-11 2q-4 0 -8 4q-2 2 -3 4t-3 4v10h10q0 -6 4 -10q2 -4 11 -4q8 0 10 2q4 4 4 10t-2 6q0 4 -4 5q-2 2 -6 2h-6v10h6q2 0 4 2q4 0 4 4l2 4q0 4 -4 8q-2 2 -8 2h-6l-5 -4q0 -2 -2 -4v-6h-12q0 4 1 5t1 5q2 2 3 4t3 4q4 4 6 4q4 2 11 3h8q8 -4 8 -5 l6 -6q0 -2 1 -4t1 -4q0 -6 -4 -10q0 -2 -8 -6zM1149 573h10v-10h-10v-16h-10v16h-33v12l33 46h10v-48zM1139 606l-23 -33h23v33zM1233 588q2 -2 2 -3t2 -3q0 -4 1 -6.5t1 -4.5q0 -4 -1 -5t-1 -5t-4 -8q-2 -2 -4 -3t-4 -3q-4 -2 -13 -2h-10q-4 4 -8 6q-4 4 -4 6q-2 2 -2 10 h12q0 -8 4 -10q2 -2 8 -2h7l4 4q2 2 2 4q2 2 2 8q0 4 -2 4q0 4 -2 7l-4 4h-7q-4 0 -8 -2l-4 -4h-12l8 41h39v-13h-29l-4 -18q4 4 6 4q2 2 6 2t6.5 -1t4.5 -1q4 -2 8 -6zM1313 588q2 -2 2 -4t2 -4q0 -4 1 -5.5t1 -5.5t-1 -5t-1 -5q-2 -2 -3 -4t-3 -4q-4 -4 -8 -4q-2 -2 -9 -2 q-10 0 -14 2t-5 4t-3 4q-4 8 -4 12t-1 8.5t-1 8.5t1 6t1 6q2 4 2 6t2 6t4 5t6 5q2 2 12 3h9q0 -2 4 -3q2 0 2 -2q2 -2 6 -8q2 -2 2 -8h-12q0 4 -5 8q0 2 -6 2h-6l-4 -4l-2 -4q-2 -2 -2 -6v-4q-2 -2 -2 -6q4 4 8 6q2 2 8 2q8 0 11 -2q4 0 8 -4zM1305 563q2 2 2 6t-2 6 q0 4 -2 5l-5 4q-2 0 -3 1t-3 1t-4 -2q-4 0 -4 -4l-4 -5v-6v-6l4 -4l4 -4h4h6q4 4 5 4q2 2 2 4zM1448 621h49v-11q-4 -4 -5 -7t-5 -7q-2 -4 -4 -7t-4 -7q-4 -12 -6 -17q0 -4 -1.5 -9t-1.5 -9h-12q0 10 2 16q2 4 3 8t3 9q2 4 4.5 8t4.5 8q8 8 10 12h-37v13zM1565 586 q8 -4 10 -6q4 -8 4 -13q0 -6 -2 -10l-6 -6q-4 -4 -8 -4q-2 -2 -11 -2q-6 0 -10 2q-4 0 -8 4l-6 6q0 4 -1 5t-1 5t4 13q2 2 10 6q-4 2 -8 6q-2 2 -2 8q0 10 6 16q8 4 16 5q8 0 17 -5q6 -6 6 -16q0 -6 -2 -8q-4 -4 -8 -6zM1544 608q-2 -2 -2 -8t2 -8t8 -2t9 2q4 4 4 8t-4 8 t-9 4q-4 0 -8 -4zM1563 557q4 4 4 10t-4 11q-2 2 -11 2q-6 0 -10 -2q-4 -4 -4 -11q0 -6 4 -10q8 -4 10 -4q7 0 11 4zM1653 610q4 -8 4 -12t1 -8t1 -8t-1 -6.5t-1 -6.5q-2 -4 -2 -6t-2 -6t-4 -5t-7 -5q-2 -2 -12 -2q-6 0 -8 2q-2 0 -3 1t-3 1q-4 4 -6 8q0 2 -1 3t-1 5h12 q0 -4 4 -8q0 -2 6 -2t8 2q4 4 4 6q2 2 3 8q2 4 2 9q-4 -4 -9 -7q-2 -2 -8 -2t-10 2q-2 0 -6 5q-4 4 -6 8q0 2 -1 4t-1 6t1 5t1 5q2 2 3 4t3 4q4 4 8 4q2 2 10 3q10 0 13 -3q6 -2 8 -8zM1645 596v6q-2 2 -3 4l-4 4h-6h-6l-4 -4q-2 -2 -2 -4q-2 -2 -2 -6t2 -6q0 -4 2 -4 q0 -4 4 -4q2 0 3 -1t3 -1t3 1t3 1l4 4l3 4v6zM1716 694q14 0 15 -14v-186q0 -16 -15 -17h-309q-16 0 -16 17v186q0 14 16 14h309zM1720 680q0 6 -4 6h-309q-6 0 -6 -6v-186q0 -6 6 -7h309q4 0 4 7v186z" />
<glyph unicode="&#xf000f;" horiz-adv-x="1705" d="M1780 1090v-992q0 -41 -29 -69.5t-70 -28.5h-546q-80 -84 -188.5 -132t-233.5 -48q-121 0 -227.5 46t-185.5 125t-125 185.5t-46 226.5q0 104 35 198.5t95 169.5t144 127t183 75v428q0 41 28.5 69.5t69.5 28.5h715h22l41 -49zM1679 963h-276q-47 0 -81 34.5t-34 81.5 q-2 88 -2 158v162h-602v-414q8 2 15.5 2h13.5q121 0 227.5 -46t186 -125t125.5 -185.5t46 -227.5q0 -84 -22.5 -160.5t-63.5 -142.5h467v863zM979 0q16 10 31.5 23.5t31.5 27.5q10 10 21.5 22.5t21.5 26.5q53 61 82 139t29 164q0 100 -38 188.5t-103.5 154t-153.5 103.5 t-188 38q-8 0 -14.5 -1t-14.5 -1l-49 -6q-25 -4 -49 -13q-78 -20 -142.5 -64t-112.5 -104.5t-75 -136.5t-27 -158q0 -100 38 -188t103.5 -153.5t153.5 -103.5t189 -38q74 0 141.5 20.5t124.5 59.5zM1384 1077q0 -12 15 -12h270l-285 324v-312zM782 477h226v-151h-226v-226 h-96h-51h-4v226h-45h-180v151h180h45v225h4h51h96v-225z" />
<glyph unicode="&#xf0010;" horiz-adv-x="1705" d="M1151 768h831v-43v-43h-831v43v43zM1425 508h557v-43v-43h-557v43v43zM1982 1286v-43v-43h-813v43v43h813zM1194 1028h788v-43v-45h-788v45v43zM1227 424q131 -68 170 -148q10 -23 12 -41t2 -28v-78q0 -16 -3 -43t-13 -43q-8 -10 -17.5 -20.5t-21.5 -14.5q-4 -2 -11.5 -4 t-23.5 -4h-2h-1196q-18 2 -25.5 4t-11.5 2q-10 4 -20.5 13.5t-20.5 23.5q-10 16 -13 43t-3 43v74q0 14 2 32.5t12 40.5q39 80 170 148q18 10 36.5 18.5t35.5 16.5q76 37 130 71.5t83 94.5q-10 12 -18.5 28.5t-12.5 38.5l-4 49q-27 14 -54.5 54.5t-31.5 124.5q0 23 8 43 t25 32q-4 25 -7.5 62t-1.5 84q4 76 39 124t84 76.5t102.5 40t94.5 11.5h29.5t33.5 -2q12 -2 38 -6.5t44 -18.5q2 -2 3 -4t5 -4q14 0 26.5 -4t19.5 -8q55 -29 86.5 -83.5t31.5 -123.5q0 -47 -2 -84t-6 -60q16 -12 25.5 -31.5t9.5 -41.5q-4 -86 -32.5 -126t-53.5 -55l-4 -45 q-4 -23 -13.5 -41t-19.5 -30q29 -59 83 -94t132 -72q16 -8 34 -16.5t36 -18.5zM1325 203q0 10 -1 18t-5 19q-6 16 -34 44.5t-97 63.5q-18 10 -35.5 17.5t-34.5 15.5q-45 23 -86 44t-75.5 49t-62.5 62.5t-44 84.5l-10 30l26 19q4 4 8 10q4 4 7.5 11t7.5 18l8 102l35 2 q10 4 26.5 27.5t20.5 83.5l-55 -2l16 55l6 43q2 23 4 52.5t2 66.5q0 41 -17 75.5t-48 51.5l-35 -58l-33 80q0 4 -6 8q-10 4 -37 9q-16 2 -28.5 2h-18.5t-44 -3.5t-81 -19.5t-79 -50t-38 -97q-4 -72 4.5 -114t8.5 -44l16 -57l-59 2q8 -59 25.5 -83t27.5 -28l35 -4l2 -35 l6 -69q2 -16 12 -25q4 -6 10 -10l25 -21l-10 -28q-16 -49 -44 -84t-62.5 -63t-75.5 -49.5t-86 -43.5q-16 -8 -34 -15.5t-34 -17.5q-70 -35 -97.5 -63.5t-35.5 -44.5q-4 -10 -5 -17.5t-1 -15.5l2 -78q0 -31 4 -43h4h1192q4 0 6 2q-2 2 0 14.5t2 26.5v74z" />
<glyph unicode="&#xf0011;" horiz-adv-x="1705" d="M1706 854q4 -4 7 -14.5t-7 -20.5l-379 -373q-16 0 -27.5 11.5t-11.5 27.5v220h-178v-441q0 -37 -26.5 -62.5t-61.5 -25.5h-162v-88q0 -39 -22.5 -63.5t-57.5 -24.5h-16l-488 178q-45 16 -62 43t-17 43v17v1132q0 37 25.5 62.5t62.5 25.5h737q35 0 61.5 -25.5t26.5 -62.5 v-436h178v215q0 16 11.5 27.5t27.5 11.5l10 -12zM766 176v92v437v272v246v6q-2 0 -4 2l-8 4l-469 170v-178l6 -946l4 -5q6 -6 12 -10l2 -2l246 -88l211 -76v76zM1016 705h-156v-437l156 2v435zM1016 1413h-477l10 -4l239 -86q51 -23 61.5 -48.5t10.5 -51.5v-246h156v436z " />
<glyph unicode="&#xf0012;" horiz-adv-x="1705" d="M954 1501q156 0 292 -59.5t238.5 -160.5t162 -238.5t59.5 -292.5q0 -156 -59.5 -292t-162 -237.5t-238.5 -161t-292 -59.5t-292 59.5t-237 161t-160.5 237.5t-59.5 292t59.5 293t160.5 238t237 160.5t292 59.5zM954 94q135 0 255 51.5t209 140.5t140.5 208.5t51.5 255.5 q0 135 -51.5 254.5t-140.5 209t-208.5 141.5t-255.5 52q-135 0 -254.5 -52t-209 -141.5t-140.5 -209t-51 -254.5t51 -255t140.5 -209t209 -140.5t254.5 -51.5zM1133 492q6 0 6 -7v-133q0 -6 -6 -6h-361q-8 0 -8 6v133q0 6 8 7h117v294h-117q-8 0 -8 9v131q0 8 8 8h96h138h8 q8 0 8 -8v-434h111zM895 1020q-6 0 -6 6v150q0 8 6 8h119q8 0 8 -8v-150q0 -6 -8 -6h-119z" />
<glyph unicode="&#xf0013;" horiz-adv-x="1705" d="M954 1501q156 0 292 -59.5t238.5 -160.5t162 -237.5t59.5 -291.5q0 -156 -59.5 -293t-162 -238.5t-238.5 -161t-292 -59.5t-292 59.5t-237 161t-160.5 238.5t-59.5 293t59.5 292t160.5 237t237 160.5t292 59.5zM954 94q135 0 255 52.5t209 141.5t140.5 208.5t51.5 255.5 q0 135 -51.5 253.5t-140.5 208t-208.5 141.5t-255.5 52q-135 0 -254.5 -52t-209 -141.5t-140.5 -208t-51 -253.5t51 -255t140.5 -209t209 -141.5t254.5 -52.5zM874 510h177v-166h-177v166zM1217 1055q18 -47 18 -103q0 -47 -8 -71q-8 -31 -25 -54q-18 -25 -33 -39 q-10 -8 -18 -16t-18 -16t-19.5 -16.5t-19.5 -16.5v-2q-18 -16 -29 -35q-14 -16 -21 -45q-6 -25 -6 -66v-12h-147v12q0 45 6 87q6 33 18 63q12 27 29 47q8 10 17.5 20.5t21.5 20.5h2q8 8 16.5 15.5t16.5 13.5q16 12 29 28q10 10 18 33q6 18 6 45q0 31 -10 51q-12 27 -27 37 q-12 12 -30 19q-18 6 -31 6q-63 0 -94 -41q-31 -43 -31 -115v-12h-152v12q0 61 19 117q18 47 57 90q37 37 90 59q49 20 117 21q49 0 98 -16q51 -16 82 -46q38 -32 58 -75z" />
<glyph unicode="&#xf0014;" horiz-adv-x="1705" d="M1470 874q29 0 50.5 -21.5t21.5 -49.5v-731q0 -29 -21.5 -50.5t-50.5 -21.5h-1030q-31 0 -51 21.5t-20 50.5v731q0 29 20.5 50t50.5 21h60v177q0 92 35.5 174t97 143.5t144.5 97t177 35.5q92 0 174 -33.5t148 -97.5q66 -66 100.5 -146.5t34.5 -172.5v-177h59zM1442 776 h-131v275q0 72 -27 135t-78 112t-115.5 76t-136.5 27q-74 0 -138 -27.5t-112.5 -76t-76 -112t-27.5 -134.5v-275h-133v-676h975v676zM954 1276q78 0 121 -27.5t66 -56.5q51 -66 51 -178v-236h-473v240q0 123 61 190.5t174 67.5zM1092 1014q0 78 -31 119q-35 43 -107 43 q-74 0 -104 -41q-31 -41 -31 -117v-139h273v135z" />
<glyph unicode="&#xf0015;" horiz-adv-x="1705" d="M1782 1282q27 0 45 -18.5t18 -44.5v-1156q0 -27 -18.5 -45t-44.5 -18h-1655q-27 0 -45.5 18.5t-18.5 44.5v1156q0 27 18.5 45t45.5 18h680v178q0 16 12 28.5t29 12.5h213q16 0 28.5 -12t12.5 -29v-178h680zM854 1061h201v45v47v35v94v172h-201v-172v-94v-35v-47v-45z M848 1014q-16 0 -28.5 11t-12.5 28v53h-137v-115h590v115h-158v-53q0 -16 -12.5 -27.5t-28.5 -11.5h-213zM1751 1188h-649v-35h164q16 0 28.5 -12.5t12.5 -28.5v-127q0 -16 -12.5 -27.5t-28.5 -11.5h-602q-16 0 -28.5 11.5t-12.5 27.5v127q0 16 12 28.5t29 12.5h143v35h-649 v-1094h1593v1094zM954 1288q-33 0 -56.5 22.5t-23.5 57.5q0 33 24 55.5t56 22.5q35 0 57.5 -22.5t22.5 -55.5q0 -35 -22.5 -57.5t-57.5 -22.5zM954 1399q-14 0 -23 -9.5t-9 -21.5q0 -33 32 -33q33 0 33 33q0 12 -9.5 21.5t-23.5 9.5zM815 387q29 -16 42 -28.5t17 -22.5 q4 -6 4.5 -11.5t0.5 -9.5v-30q0 -16 -5 -25q-6 -6 -8 -6q-2 -2 -4 -2h-4h-469h-4q-2 0 -2 2q-6 0 -8 6q-4 4 -4 11.5v13.5v30q0 4 -1 9.5t3 11.5q4 10 17 22.5t42 28.5q45 23 78 40t47 58l-6 7q-8 8 -10 18l-2 29q-6 0 -15 8q-6 6 -11 16t-7 33q0 6 2 10q4 8 14 8 q-2 8 -4 19q-2 10 -3 21.5t1 27.5q2 31 18.5 48.5t36.5 25.5q23 8 54 10h6q4 0 7 -1t9 -1q14 0 25 -6l6 -6q4 2 9 0t7 -4q16 -8 26.5 -25.5t10.5 -40.5q0 -16 -1 -27.5t-1 -21.5q-2 -10 -2 -19q8 0 12 -8q2 -4 2 -10q-2 -23 -6 -33t-10 -16q-8 -8 -16 -8l-2 -29 q-2 -10 -11 -18l-6 -7q14 -41 47 -58t78 -40zM977 727h545v-47h-545v47zM977 532h545v-47h-545v47zM977 338h545v-47h-545v47z" />
<glyph unicode="&#xf0016;" horiz-adv-x="1705" d="M1663 1147q55 0 104.5 -20.5t85 -57.5t57 -85t21.5 -103v-416q0 -55 -21.5 -104.5t-57 -85t-85 -57t-104.5 -21.5h-27q0 -33 7.5 -65t25.5 -40l-35 -92q-4 0 -39.5 13.5t-86 39t-102.5 61.5t-89 83h-365q-55 0 -104 21.5t-85 57t-57.5 85t-21.5 104.5v80h-92 q-37 -47 -89 -83t-101.5 -61.5t-86 -39t-41.5 -13.5l-34 92q18 8 25 40t9 65h-26q-55 0 -104.5 21.5t-85 57t-57 85t-21.5 104.5v414q0 55 21.5 104t57 85t85 57.5t104.5 21.5h708q55 0 104.5 -21.5t86.5 -57.5t57.5 -85t20.5 -104v-80h438zM1831 881q0 70 -49 119t-119 49 h-438v-236q0 -55 -20.5 -104.5t-57.5 -85t-86 -57t-105 -21.5h-174v-80q0 -72 49.5 -121t120.5 -49h418l14 -23q23 -37 66 -68.5t90 -56.5q-4 39 -3 69t3 36l6 43h117q70 0 119 49t49 121v416zM369 496q47 23 90 54.5t65 70.5l15 22h145h49h49h174q72 0 121 49t49 121v236 v49v49v80q0 72 -49 121t-121 49h-708q-72 0 -121 -49.5t-49 -120.5v-414q0 -72 49 -121t121 -49h117l6 -43q0 -8 2 -37.5t-4 -66.5z" />
<glyph unicode="&#xf0017;" horiz-adv-x="1705" d="M1450 1501q39 0 66.5 -27.5t27.5 -66.5v-1313q0 -39 -27.5 -66.5t-66.5 -27.5h-991q-39 0 -66.5 27.5t-27.5 66.5v1313q0 39 27.5 66.5t66.5 27.5h991zM459 1401l2 -1307l983 2v1305h-985zM1313 1116h-717v101h717v-101zM1313 840h-717v100h717v-100zM1313 561h-717v101 h717v-101zM1313 285h-717v100h717v-100z" />
<glyph unicode="&#xf0018;" horiz-adv-x="1705" d="M1188 1284l-111 -63l-71 -43l-17 145l88 248v-246l111 201v-176l96 100v-111zM842 1217l-111 63l-96 55v115l96 -100v176l111 -201v246l88 -248l-17 -149zM1006 1178l-50 -29l-43 25l48 409zM1354 1352v-459l-398 -229l-397 229v459l397 -230zM1487 -37l-96 55v109 l57 -33zM1602 6l-211 121v129l90 -53zM1696 80l-305 176v84l133 -59zM1812 524l-135 -32l-59 34l94 56zM1831 403l-232 7l-92 53l111 63zM1815 285l-261 47l-120 88l73 43zM1391 340v55l43 25l331 -244zM1368 868l395 -229l-395 -229v-459l-397 229v459zM96 528l97 58 l96 -56l-58 -32zM80 410l209 120l110 -63l-90 -53zM94 291l305 176l74 -43l-119 -86zM213 84l172 203l135 59v-84v-127v-110l-98 -58l39 133l-152 -88l119 197zM145 182l328 242l47 -29v-49zM147 639l398 229l397 -229v-459l-397 -229v459z" />
<glyph unicode="&#xf0019;" horiz-adv-x="1712" d="M356 426l2 2h-2v-2v0zM1122 1346l121 129v-123l-291 -170l-286 166v127l110 -117l17 201l102 -244l59 278l56 -258l92 224zM956 1100l355 203v-408l-355 -205l-354 205v408zM1554 371l211 -193l-252 82l150 -192l-195 90l50 -170l-107 61v338l287 166l110 -66l-157 -36 l166 -115zM1337 834l355 -205l-355 -205v-408l-354 203v410zM203 547l293 -170v-330l-111 -63l45 153l-182 -84l160 209l-271 -88l197 178l-242 -33l176 123l-174 41zM571 834l355 -205v-410l-355 -205v410l-354 205z" />
<glyph unicode="&#xf001a;" horiz-adv-x="1024" d="M1556 379l226 -203l-269 86l158 -205l-207 97l56 -181l-115 66v358l303 176l117 -69l-166 -39l176 -123zM293 356v2h-2l2 -2v0zM1126 1362l131 137v-131l-311 -180l-303 176v135l117 -125l18 215l109 -260l63 295l60 -274l98 239zM952 1130l377 220v-437l-377 -217 l-377 217v437zM1354 854l377 -217l-377 -217v-434l-375 217v434zM193 567l309 -180v-350l-117 -68l49 164l-194 -90l172 221l-289 -92l209 188l-256 -32l186 129l-184 45zM541 856l377 -217v-434l-377 -217v434l-377 217z" />
<glyph unicode="&#xf001b;" horiz-adv-x="1699" d="M2111 334q10 -20 11.5 -34.5t1.5 -25.5v-57q0 -4 -2 -27.5t-13 -42.5q-14 -23 -32 -30q-4 -2 -9.5 -4t-21.5 -2h-2h-451q0 -16 -3 -36t-11 -34q-12 -20 -37 -35q-4 0 -11 -2t-24 -4h-1097q-18 2 -25.5 4t-9.5 2q-10 4 -19.5 12.5t-19.5 22.5q-8 14 -11 33.5t-3 36.5h-455 q-16 0 -23.5 2t-9.5 4q-20 8 -35 30q-10 18 -12 42t-2 28v55q0 10 1 26.5t11 35.5q33 63 131 115q14 6 27.5 13t26.5 13q55 27 94 49.5t59 63.5q-6 10 -12 21.5t-10 27.5l-2 33q-20 12 -41 43.5t-25 95.5q0 37 25 61q-4 18 -6.5 44t-0.5 61q2 59 30 97t67 60.5t81 32t72 9.5 h21.5t27.5 -3q12 0 31 -5t35 -15l4 -2q10 -2 19.5 -5t15.5 -7q45 -23 69.5 -67t24.5 -97q0 -66 -6 -103q27 -20 27 -59q-4 -66 -24.5 -97.5t-41.5 -43.5l-2 -29q-4 -16 -10 -29.5t-12 -23.5q20 -41 58 -63.5t95 -49.5q35 20 61.5 43t43.5 57q-8 10 -15.5 25.5t-11.5 36.5 l-4 43q-25 14 -50.5 51t-29.5 115q0 47 31 72q-4 23 -7.5 56.5t1.5 76.5q2 70 34.5 114.5t77.5 71.5t95.5 37t86.5 10h25.5t32.5 -2q12 -2 35.5 -6t40.5 -19l8 -4q16 -2 27.5 -6t15.5 -6q51 -27 80.5 -78t29.5 -114q0 -43 -2 -76t-6 -55q16 -12 23.5 -31t9.5 -37 q-6 -80 -31.5 -117t-48.5 -53l-4 -39q-4 -23 -12 -38t-17 -28q16 -33 42 -56t61 -44q55 27 92 50.5t57 62.5q-14 23 -20 49l-4 33q-20 12 -40 43.5t-24 95.5q0 35 23 61q-2 18 -4 44t0 61q2 59 29.5 97t65.5 60.5t80 32t72 9.5h23.5t26.5 -3q12 0 31.5 -5t33.5 -15l4 -2 q12 -2 21.5 -5t15.5 -7q43 -23 68.5 -67t25.5 -97q0 -33 -2 -58.5t-4 -44.5q23 -20 27 -59q-4 -66 -24.5 -97.5t-41.5 -43.5l-4 -29q-6 -33 -22 -53q23 -41 60.5 -63.5t92.5 -49.5q12 -6 25.5 -13t27.5 -13q98 -52 131 -115zM1509 154v34v9q0 8 -4 24q-8 14 -32.5 40 t-88.5 58q-16 8 -31.5 15.5t-31.5 15.5q-14 8 -27.5 14.5t-27.5 14.5q-12 6 -23.5 12t-21.5 12q-18 10 -41 27q-35 27 -62.5 60.5t-44.5 80.5l-8 29l25 21q4 2 8 8q8 12 10 24l8 97l37 4q6 2 19.5 22.5t17.5 71.5h-43l8 51q0 2 6 41t6 109q0 39 -17 69.5t-46 44.5 q-8 4 -10 4h-2l-19 -2l-31 25q-4 2 -14 4t-20 2q-14 2 -25.5 2h-17.5t-39 -3t-72 -17.5t-70.5 -45t-33.5 -85.5q-2 -63 4 -105q2 -23 6 -39l16 -57l-49 2q4 -53 16.5 -72.5t22.5 -23.5l35 -2v-35l6 -66q2 -6 5 -12t7 -10q4 -6 8 -9l23 -18l-8 -29q-16 -49 -45 -82.5 t-64 -60.5q-23 -16 -41 -27q-10 -6 -21.5 -12t-23.5 -12t-25.5 -13.5t-27.5 -13.5q-16 -8 -31.5 -15t-32.5 -16q-63 -33 -87.5 -58t-30.5 -40q-4 -8 -4 -24v-2v-41v-33v-10q2 -10 3 -17.5t1 -9.5l1091 2h6q-2 2 -2 25q2 4 2 10v33zM-125 295q-4 -6 -4 -19v-59q0 -6 1 -11 t1 -9h449q0 12 1 27.5t11 33.5q37 76 158 137q16 8 30.5 15.5t28.5 15.5q-51 27 -90 61.5t-60 94.5l-10 30l25 19q4 2 6 6q4 8 6 16l8 84l35 4q-2 0 9.5 10.5t15.5 51.5h-39l10 51q2 12 4 31q2 16 3 37.5t1 50.5t-12 53.5t-33 34.5q-4 0 -4 1t-2 1h-2l-19 -2l-26 20 q-4 4 -23 4q-12 2 -21 2h-14q-4 0 -30.5 -2t-56 -13t-55 -34.5t-27.5 -66.5q-2 -27 0 -47.5t4 -36.5q2 -18 6 -31l14 -55h-43q4 -41 15.5 -51.5t13.5 -10.5l35 -4v-33l4 -53q0 -4 2 -7t4 -7t6 -6l25 -19l-11 -28q-27 -76 -81 -113t-124 -72q-12 -6 -25 -12l-26 -12 q-53 -29 -71.5 -48.5t-22.5 -29.5zM1581 258q10 -18 12 -34.5t2 -26.5h441q2 4 2 20v55q0 16 -2 23q-4 10 -23.5 29.5t-70.5 48.5q-14 6 -26.5 12t-25.5 12q-70 35 -125 72t-82 113l-10 30l25 19l6 6q2 4 4 7t4 9l6 84l35 4q4 2 10 11q8 10 15 51h-37l8 51q2 12 4 31 q2 16 4 37.5t2 50.5q0 63 -47 88q-4 2 -8 2l-16 -2l-27 20q-4 4 -25 4q-10 2 -19 2h-15q-4 0 -31 -2t-56.5 -13t-54 -34.5t-26.5 -66.5q-2 -27 -1 -47.5t3 -36.5q2 -18 6 -31l16 -55h-43q2 -20 7 -32.5t10 -18.5q6 -8 10 -11l35 -4v-33l4 -53q2 -10 8 -14q2 -4 6 -6l23 -19 l-9 -28q-20 -59 -59 -93t-88 -63q16 -8 30.5 -14t30.5 -17q119 -61 158 -137z" />
<glyph unicode="&#xf001c;" horiz-adv-x="1699" d="M1688 246q10 -20 10 -36.5v-27.5v-86q0 -20 -4 -40.5t-8 -30.5q-10 -16 -25 -21q-4 -4 -12 -4h-9h-256v10q0 88 -36.5 166t-96 135.5t-137.5 90t-160 32.5q-94 0 -173 -36t-136 -96t-89 -137t-32 -157q0 -2 1 -4t1 -4h-256h-10q-8 0 -12 4q-12 4 -23 21q-6 10 -10 30.5 t-4 40.5v86q0 10 1 26.5t11 37.5q12 27 50 65.5t124 81.5q63 33 120.5 59.5t105 57.5t82 71t53.5 97q-10 8 -19 18q-8 10 -15 24.5t-11 33.5l-6 80q-25 4 -45 24q-16 16 -33 52t-21 98q0 14 6 26q4 10 14.5 18.5t26.5 8.5q-6 20 -10 51q-4 25 -6 61.5t0 83.5q2 45 16.5 80 t37 59.5t51 42t57.5 29.5q68 27 153 31h19q10 0 22.5 -1t28.5 -1q10 -2 32.5 -6t35.5 -14q6 -4 9 -10.5t7 -10.5q4 -6 6 -10q10 18 25.5 13t21.5 -9q51 -27 80 -78t29 -115q0 -47 -2 -83.5t-6 -61.5q-4 -31 -7 -51q16 0 25.5 -8.5t13.5 -18.5q6 -12 6 -26q-4 -61 -19 -97.5 t-32 -52.5q-20 -20 -45 -24l-8 -80q-8 -37 -27 -58q-8 -10 -18 -18q20 -57 55 -97t82 -71t103.5 -57.5t121.5 -59.5q86 -43 123.5 -81.5t51.5 -65.5zM954 145q18 0 30.5 -12t12.5 -31v-49h-86v49q0 18 13.5 30.5t29.5 12.5zM954 352q72 0 135.5 -27.5t111.5 -74.5t76 -109.5 t28 -134.5t-28 -134t-76 -109.5t-111.5 -75t-135.5 -27.5t-135 27.5t-110 75t-75 109.5t-28 134t28 134.5t75 109.5t110 74.5t135 27.5zM1098 37q0 6 -6 6h-29v59q0 45 -32 76t-77 31t-75.5 -31t-30.5 -76v-59h-31q-4 0 -4 -6v-195q0 -6 4 -6h275q6 0 6 6v195z" />
<glyph unicode="&#xf001d;" horiz-adv-x="1699" d="M799 0h-750v115h543l207 -115v0zM1356 367l-338 190l446 795l338 -191l-446 -794v0zM1262 203l-338 190l43 76l338 -190l-43 -76v0zM963 43l-148 82l92 164l271 -152l-215 -94v0zM1815 1280l-248 139l45 80l248 -139l-45 -80v0z" />
<glyph unicode="&#xf001e;" horiz-adv-x="1699" d="M750 946q-20 4 -37 21q-14 14 -26.5 42.5t-16.5 82.5q0 14 4 22q8 20 33 21l-9 45q-4 23 -5 51.5t1 66.5q4 76 44 117t89 60q55 23 129 24h17h17t24 -2q10 -2 28.5 -5t28.5 -11q4 -4 7 -8.5t7 -8.5l5 -8q10 14 21 10t17 -8q41 -23 66 -64.5t25 -95.5q0 -39 -2.5 -68.5 t-4.5 -51.5l-6 -43q25 0 33 -21q4 -8 4 -22q-4 -53 -16.5 -82t-26.5 -43q-16 -16 -37 -21l-6 -65q-4 -16 -10 -27.5t-12 -19.5q-8 -8 -15 -17q2 -4 2 -6t2 -6l-168 -23l-168 23q4 8 5 12l-17 17q-14 18 -20 47zM762 756l84 -11v-432v-311l-653 141v4q20 2 49.5 20.5 t52.5 78.5q31 74 31 180q0 109 -31 182q-23 59 -52.5 78t-49.5 21v120zM1614 246q25 -61 55.5 -78.5t50.5 -20.5v-4l-653 -141v311v432l84 11l569 71v-120q-20 -2 -51 -19.5t-55 -79.5q-31 -74 -31 -182q0 -106 31 -180zM1171 479l13 -88l348 47l-10 74q-8 8 -15 12z M1249 668l-78 -11l13 -88l202 29l146 18l-12 89zM983 725h31v-412v-323v-27v-4h-21l-10 -4v4h-27h-26v-4l-10 4h-21v4v27v323v412h31h26h27zM229 426q0 -68 -12 -112t-24 -60q-4 -4 -5.5 -6t-3.5 -4q-4 2 -11 5t-13 7q-4 4 -11.5 11t-13.5 18q-2 4 -4 5t-4 5 q-10 16 -21.5 48t-11.5 79t14.5 81t24.5 50q4 8 6 10q14 18 27 29q10 14 18 18q2 -2 3 -4t6 -6q12 -16 24 -60t12 -114zM1780 559q10 -16 24.5 -51t14.5 -82t-14.5 -81t-24.5 -50q0 -2 -2 -4q-16 -23 -27 -31q-12 -12 -27 -16q0 2 -4 6q-12 14 -26.5 59t-14.5 117 q0 74 14.5 119t26.5 59q4 4 4 6q10 -4 27 -16q10 -8 27 -31q0 -2 1 -2t1 -2z" />
<glyph unicode="&#xf001f;" horiz-adv-x="1699" d="M1817 1427q41 0 68.5 -27.5t27.5 -68.5v-1167q0 -41 -27.5 -68.5t-68.5 -27.5l-711 -2l-25 -66h-250l-30 66l-709 2q-41 0 -68.5 27.5t-27.5 68.5v1167q0 41 27.5 68.5t68.5 27.5h103q31 10 76.5 22.5t101 24t119 19.5t129.5 8q104 0 187 -15.5t146 -51.5q63 37 166 52 t207 15q133 0 237.5 -26.5t157.5 -47.5h95zM1669 686q4 16 -4 31.5t-25 19.5q-289 74 -514 31q-16 -4 -26 -17.5t-6 -29.5t18 -27.5t31 -7.5q207 41 475 -31h10q14 0 25.5 8.5t15.5 22.5zM1669 418q4 16 -4 30.5t-25 18.5q-287 76 -514 33q-16 -4 -26 -18.5t-6 -30.5 t18 -26.5t31 -6.5q207 41 475 -31q4 0 6 -1t4 -1q14 0 25.5 8.5t15.5 24.5zM1669 954q4 16 -4 31.5t-25 20.5q-293 76 -514 32q-16 -4 -26 -18t-6 -31q4 -16 18 -26.5t31 -6.5q207 37 475 -30q4 -2 10 -2q14 0 25.5 8t15.5 22zM1669 1223q4 16 -4 31.5t-25 19.5 q-287 76 -514 33q-16 -4 -26 -18.5t-6 -31.5q4 -16 18 -26t31 -6q207 41 475 -31q4 -2 10 -2q14 0 25.5 8.5t15.5 22.5zM995 1176q0 6 -3 25.5t-7 42t-8 42t-6 25.5q-16 53 -33 0q-2 -6 -6 -25.5t-8 -42t-7.5 -42t-3.5 -25.5v-318v-412q0 -6 3.5 -25.5t7.5 -42t8 -42 t6 -25.5q16 -53 33 0q2 6 6 25.5t8 42t7 42t3 25.5v730zM764 686q16 -4 30.5 7.5t18.5 27.5t-6 29.5t-27 17.5q-227 43 -514 -31q-16 -4 -24.5 -19.5t-3.5 -31.5q6 -31 41 -31h10q268 72 475 31zM813 451q4 16 -6 30.5t-27 18.5q-229 43 -514 -33q-16 -4 -24.5 -18.5 t-3.5 -30.5q6 -33 41 -33q2 0 4 1t6 1q268 72 475 31q16 -4 30.5 6.5t18.5 26.5zM764 956q16 -4 30.5 6.5t18.5 26.5t-6 30.5t-27 18.5q-113 23 -241.5 13.5t-272.5 -45.5q-16 -4 -24.5 -19.5t-3.5 -32.5q6 -31 41 -30q6 0 10 2q268 67 475 30zM764 1225q16 -4 30.5 6 t18.5 26t-6 31t-27 19q-229 43 -514 -33q-16 -4 -24.5 -19.5t-3.5 -31.5q6 -31 41 -31q6 0 10 2q268 72 475 31zM1831 1331q0 14 -14 15h-50v-1158q-98 20 -188 37q-78 14 -161 25.5t-136 15.5h-27q-82 0 -134 -17.5t-81 -33.5q-23 -14 -35 -26.5t-16 -18.5h-67l-18.5 18.5 t-35.5 26.5q-29 16 -81 33.5t-134 17.5h-26q-39 -2 -65.5 -3t-50.5 -4t-51.5 -7t-68.5 -12.5t-101.5 -20.5t-148.5 -31v1158h-49q-12 0 -12 -15v-1167q0 -12 12 -12l762 -2l31 -66h139l25 66l768 2q14 0 14 12v1167z" />
</font>
</defs>
</svg>
