<?xml version="1.0" standalone="no"?>
<!DOCTYPE svg PUBLIC "-//W3C//DTD SVG 1.1//EN" "http://www.w3.org/Graphics/SVG/1.1/DTD/svg11.dtd" >
<!--
2015-12-14: Created with FontForge (http://fontforge.org)
-->
<svg xmlns="http://www.w3.org/2000/svg" xmlns:xlink="http://www.w3.org/1999/xlink" version="1.1">
<metadata>
Created by FontForge 20150504 at Mon Dec 14 15:52:18 2015
 By Matt Hodgson
Copyright (c) 2015, Matt Hodgson
</metadata>
<defs>
<font id="fusible-font" horiz-adv-x="512" >
  <font-face 
    font-family="fusible-font"
    font-weight="400"
    font-stretch="normal"
    units-per-em="512"
    panose-1="2 0 5 3 0 0 0 0 0 0"
    ascent="448"
    descent="-64"
    bbox="0 -64.3359 512.336 448"
    underline-thickness="25.6"
    underline-position="-51.2"
    unicode-range="U+0020-F12A"
  />
    <missing-glyph />
    <glyph glyph-name="space" unicode=" " horiz-adv-x="200" 
 />
    <glyph glyph-name="uniF100" unicode="&#xf100;" 
d="M408.432 174.912l-142.319 -142.304c-5.44043 -5.52051 -15.0879 -5.52051 -20.5283 0l-143.872 143.823c-4.16016 4.20801 -5.4082 11.2324 -3.15234 16.6719c2.22461 5.47266 7.53613 9.80859 13.4082 9.80859h83.5684v136.416
c0 8.03223 6.49609 16.1914 14.5283 16.1914h87.1836c8.03223 0 14.5596 -8.15918 14.5596 -16.1914v-136.4h87.8887h0.303711c8.03223 0 14.5283 -7.34375 14.5283 -15.376c0.0478516 -4.87988 -2.41602 -9.53613 -6.09668 -12.6396z" />
    <glyph glyph-name="uniF102" unicode="&#xf102;" 
d="M408.432 209.088c3.66406 -3.12012 6.12793 -7.75977 6.1123 -12.6562c0 -8.03125 -6.49609 -15.376 -14.5283 -15.376h-0.303711h-87.8877v-136.352c0 -8.03223 -6.52832 -16.1924 -14.5605 -16.1924h-87.1836c-8.03223 0 -14.5283 8.16016 -14.5283 16.1924v136.352
h-83.5674c-5.87207 0 -11.1846 4.36816 -13.4082 9.82422c-2.25586 5.44043 -1.00781 12.4805 3.13574 16.6562l143.872 143.855c5.44043 5.48828 15.0879 5.48828 20.5283 0z" />
    <glyph glyph-name="uniF10D" unicode="&#xf10d;" 
d="M181.312 221.728v117.265h57.7441v-300.192h-57.7441v150.992h-55.0234v-150.992h-57.7598v300.192h57.7598v-117.265h55.0234zM329.744 76.96v0l0.015625 -8h113.681v-30.1602h-171.408v31.0566c0 53.8076 34.4795 91.8076 64.8643 125.376
c25.1191 27.6953 48.8154 53.8398 48.8154 84.7197c0 19.4717 -10.208 30.624 -27.9844 30.624c-17.7754 0 -28 -11.1523 -28 -30.624v-37.7119h-57.7119v26.6562c0 67.0713 42.2725 76.3193 87.9365 76.3193c31.1836 0 83.4717 -9.82422 83.4717 -75.5039
c0 -43.8398 -27.1357 -72.3359 -55.8555 -102.528c-16.208 -17.0078 -32.9121 -34.6074 -45.248 -55.5996l-2.56055 -4.40039c-4.92773 -8.44727 -10.0156 -17.1357 -10.0156 -30.2236z" />
    <glyph glyph-name="uniF105" unicode="&#xf105;" 
d="M260.72 225.664c-9.24805 -0.400391 -20.4473 -0.671875 -33.6162 -0.671875h-19.0078v68.2715h13.792c16.3359 0 29.0566 -0.143555 38.0479 -0.335938c8.99219 -0.239258 16.5762 -1.45605 22.6562 -3.74414c6.75195 -2.60742 11.5039 -6.60742 14.1758 -11.9512
c2.67285 -5.32812 4 -10.7041 4 -16.0322c0 -6.92773 -1.11914 -13.04 -3.45605 -18.2559c-2.30371 -5.2959 -7.21582 -9.63281 -14.7197 -12.9287c-5.32812 -2.41602 -12.6562 -3.91992 -21.8721 -4.35156zM292.72 176.512
c9.24805 -2.65527 15.8398 -6.7041 19.7285 -12.0801c3.82422 -5.42383 5.77539 -13.1201 5.77539 -23.1035c0 -7.58398 -1.63184 -14.3359 -4.7832 -20.1602c-3.12012 -5.83984 -8.92871 -10.4961 -17.3447 -14.0479c-8.27148 -3.50391 -17.376 -5.2959 -27.1514 -5.42383
c-9.85645 -0.208008 -26.1279 -0.272461 -48.8799 -0.272461h-11.9688v78.2881h23.7441c12.0957 0 23.6797 -0.0800781 34.7998 -0.255859c11.0566 -0.112305 19.7441 -1.12012 26.0801 -2.94434zM469.344 447.984c23.5527 0 42.6562 -19.1045 42.6562 -42.6562v-426.656
c0 -23.5684 -19.1035 -42.6562 -42.6562 -42.6562h-426.655c-23.5361 0 -42.6885 19.0879 -42.6885 42.6562v426.656c0 23.5518 19.1523 42.6562 42.6885 42.6562h426.655zM375.888 103.568c5.42383 10.624 8.12793 22.6553 8.17676 36.1758
c0 18.6396 -5.37598 33.5996 -16.0488 44.9922c-10.6719 11.3438 -25.168 18.832 -43.376 22.4639v1.50391c13.0088 5.74414 23.0566 13.7764 30.1768 24.0801c7.11914 10.3193 10.6553 22.1758 10.6553 35.6797c0 11.6162 -2.5752 21.9365 -7.74414 31.0078
c-5.19922 9.05664 -13.1191 16.3047 -23.7432 21.6641c-10.208 5.08789 -20.5439 8.43262 -30.96 9.9043c-10.4482 1.50391 -26.9287 2.25586 -49.4248 2.25586h-108.336v-279.008h121.824c20.2236 0 36.9277 1.71191 50.1279 5.24805
c13.1846 3.50391 25.248 9.37598 36.2559 17.6318c9.48828 6.94434 16.96 15.7764 22.416 26.4004z" />
    <glyph glyph-name="uniF10B" unicode="&#xf10b;" 
d="M150.816 341.696v-116.929h54.96v116.929h57.5674v-299.393h-57.5674v150.624h-54.96v-150.624h-57.5684v299.393h57.5684zM309.376 306.512c31.9355 1.82422 54.1279 14.5605 61.4404 35.1846h47.9355v-299.408h-57.5361v233.936h-51.8398v30.2881z" />
    <glyph glyph-name="uniF101" unicode="&#xf101;" 
d="M469.328 448c23.5996 0 42.6719 -19.1035 42.6719 -42.6719v-426.656c0 -23.5684 -19.0723 -42.6719 -42.6562 -42.6719h-426.672c-23.5518 0 -42.6719 19.1035 -42.6719 42.6562v426.672c0 23.5684 19.1201 42.6719 42.6719 42.6719h426.656zM388.992 168.864
c3.18359 2.7041 5.34375 5.87207 5.32812 10.1602c0 6.99121 -5.66406 12.4951 -12.6885 12.4951h-0.255859h-71.6484v139.824c0 7.00781 -4.36719 11.5527 -11.3594 11.5527h-88.9277c-6.99219 0 -13.248 -4.54492 -13.248 -11.5527v-139.824h-65.8564
c-5.12012 0 -9.71191 -2.91113 -11.6963 -7.66309c-1.95117 -4.7041 -0.895508 -9.98438 2.75195 -13.6162l125.536 -125.552c4.75195 -4.75293 13.168 -4.75293 17.9199 0z" />
    <glyph glyph-name="uniF119" unicode="&#xf119;" 
d="M469.344 448c23.5361 0 42.6562 -19.1035 42.6562 -42.6719v-426.672c0 -23.5684 -19.1201 -42.6562 -42.6562 -42.6562h-426.672c-23.5361 0 -42.6719 19.0879 -42.6719 42.6562v426.672c0 23.5684 19.1357 42.6719 42.6719 42.6719h426.672zM380 305.28
l6.12793 26.9434h-138.448l-6.12793 -26.9756h50.7041l-109.744 -222.976h-50.4961l-6.17578 -26.9609h138.464l6.12793 26.9609h-50.7041l109.729 223.008h50.5439z" />
    <glyph glyph-name="uniF127" unicode="&#xf127;" 
d="M469.328 448c23.5684 0 42.6719 -19.1035 42.6719 -42.6719v-426.656c0 -23.5684 -19.1035 -42.6719 -42.6719 -42.6719h-426.656c-23.5684 0 -42.6719 19.1035 -42.6719 42.6719v426.656c0 23.5684 19.1035 42.6719 42.6719 42.6719h426.656zM244.112 55.5039v-0.015625
h56.6553l-67.2314 97.5996l66.2236 92.1602h-54.2236l-40.624 -59.1045l-39.4717 59.1045h-56.4805l65.8877 -94.1602l-67.3115 -95.584h54.0957l41.6641 62.2725zM404.432 229.584v0l-0.015625 21.168h-49.7119c1.93555 1.4082 5.16797 3.82422 9.74414 7.32812
s9.08789 7.34375 13.6162 11.5039c7.15137 6.67188 12.4951 13.1357 16.0156 19.4404c3.45605 6.30371 5.23145 12.9277 5.23145 19.9199c0 10.6875 -3.64746 18.9277 -10.9434 24.7197c-7.28027 5.79199 -17.8398 8.71973 -31.7285 8.71973
c-6.86328 0 -13.7119 -0.767578 -20.6074 -2.27148c-6.86426 -1.56836 -12.0479 -3.08789 -15.5684 -4.67188v-24.5439h2.38379c4.30469 2.89551 9.00879 5.31152 14 7.16797c5.04004 1.91992 9.82422 2.83203 14.3682 2.83203c6.0957 0 10.7998 -1.32812 14.0166 -4.08008
c3.21582 -2.78418 4.86328 -6.67285 4.86328 -11.7129c0 -4.23926 -1.23145 -8.47949 -3.74414 -12.7998c-2.54395 -4.28809 -6.84766 -9.35938 -12.8477 -15.1514c-3.98438 -3.91992 -9.32812 -8.59277 -16 -13.9688c-6.65625 -5.3916 -13.2803 -10.4951 -19.9521 -15.2793
v-18.3203h86.8799z" />
    <glyph glyph-name="uniF128" unicode="&#xf128;" 
d="M167.808 84.8965c-11.376 11.4395 -19.5039 25.3438 -24.4961 41.5996c-5.00781 16.2559 -7.50391 36.2236 -7.50391 59.9199v187.344h41.6328v-189.424c0 -16.9922 1.15137 -30.3682 3.47168 -40.1758c2.32031 -9.79199 6.19141 -18.7197 11.6641 -26.6885
c6.17578 -9.10352 14.5273 -16 25.1201 -20.624c10.5918 -4.60742 23.3115 -6.94336 38.1914 -6.94336c14.9922 0 27.7607 2.28809 38.2559 6.84766c10.5283 4.52832 18.9121 11.4883 25.248 20.7197c5.44043 7.96875 9.34473 17.1201 11.6641 27.4561
c2.32031 10.2881 3.47266 23.0723 3.47266 38.3525v190.479h41.6641v-187.296c0 -22.7197 -2.49609 -42.5283 -7.47266 -59.4082c-4.99219 -16.9277 -13.1514 -30.96 -24.4961 -42.1592c-10.7832 -10.6562 -23.4072 -18.4326 -37.8398 -23.3447
c-14.4482 -4.92773 -31.2803 -7.3916 -50.4795 -7.3916c-19.6162 0 -36.752 2.5918 -51.2803 7.77539c-14.5918 5.2168 -26.8799 12.8164 -36.8164 22.9609zM98.4004 10.2402v25.2002h315.199v-25.2002h-315.199z" />
    <glyph glyph-name="uniF11B" unicode="&#xf11b;" 
d="M469.664 448c23.5361 0 42.6719 -19.1201 42.6719 -42.6885v-426.96c0 -23.584 -19.1357 -42.6875 -42.6875 -42.6875h-426.96c-23.5527 0 -42.6885 19.1035 -42.6885 42.6875v426.96c0 23.5684 19.1357 42.6885 42.6885 42.6885h426.976zM195.104 50.0479h58.4648
l-71.7607 158.353l68.4648 119.104h-58.4805l-30.3516 -56.5918c-11.0889 -20.3525 -24.4004 -44.7363 -32.5762 -66.5605h-0.704102v123.152h-51.8242v-277.456h51.8076v79.5518l18.1123 29.9365zM436.032 286.816v40.6875h-172.816v-40.6875h60.7041v-236.769h51.7764
v236.769h60.3359z" />
    <glyph glyph-name="uniF111" unicode="&#xf111;" 
d="M375.248 32.0156h-238.528v53.2168l100.88 104.287l-98.7832 108.337v54.1279h231.664v-54.9121h-141.12l90.7832 -99.8398v-15.8721l-92.5918 -94.4004h147.744v-54.9443h-0.0478516z" />
    <glyph glyph-name="uniF125" unicode="&#xf125;" 
d="M469.328 448c23.5684 0 42.6719 -19.1035 42.6719 -42.6719v-426.656c0 -23.5684 -19.1035 -42.6719 -42.6562 -42.6719h-426.672c-23.5684 0 -42.6719 19.1035 -42.6719 42.6562v426.672c0 23.5684 19.1035 42.6719 42.6719 42.6719h426.656zM244.144 142.56h-0.015625
v-0.0478516h56.4639l-66.96 97.2803l65.9678 91.7764h-54.0479l-40.416 -58.832l-39.3281 58.832h-56.2715l65.6475 -93.792l-67.04 -95.2168h53.8408l41.5039 62.0166zM403.888 55.9844v0.015625v0v21.0723h-49.5518c1.93652 1.37598 5.16797 3.79199 9.69629 7.2959
c4.5918 3.47168 9.05566 7.26367 13.5674 11.4395c7.16797 6.62402 12.4805 13.0889 15.9688 19.3447c3.43945 6.28809 5.21582 12.8955 5.21582 19.8555c0 10.624 -3.66406 18.8164 -10.9121 24.6084c-7.24805 5.80762 -17.8076 8.7041 -31.5996 8.7041
c-6.84863 0 -13.6963 -0.751953 -20.5283 -2.27246c-6.84766 -1.55176 -12 -3.05566 -15.5039 -4.55957v-24.5439h2.36816c4.23926 2.91211 8.92773 5.31152 13.9033 7.18359c5.02441 1.87207 9.79199 2.7998 14.3359 2.7998c6.03223 0 10.752 -1.34375 13.9521 -4.11133
c3.23242 -2.7041 4.83203 -6.59277 4.83203 -11.6328c0 -4.20801 -1.24805 -8.47949 -3.74414 -12.752c-2.49609 -4.28809 -6.76758 -9.31152 -12.7041 -15.1035c-4 -3.87207 -9.31152 -8.51172 -15.9512 -13.8877c-6.62402 -5.37598 -13.248 -10.4326 -19.8721 -15.248
v-18.208h86.5273z" />
    <glyph glyph-name="uniF129" unicode="&#xf129;" 
d="M469.344 448c23.5361 0 42.6562 -19.1035 42.6562 -42.6719v-426.672c0 -23.5684 -19.1201 -42.6562 -42.6562 -42.6562h-426.672c-23.5361 0 -42.6719 19.0879 -42.6719 42.6562v426.672c0 23.5684 19.1357 42.6719 42.6719 42.6719h426.672zM150.976 332.816h0.0644531
v-163.889c0 -20.7354 2.16016 -38.1113 6.49609 -52.3994c4.36816 -14.1768 11.4883 -26.2725 21.4082 -36.3848c8.71973 -8.81543 19.4238 -15.5195 32.1758 -20.0312c12.752 -4.49609 27.6641 -6.81641 44.832 -6.81641c16.7998 0 31.5039 2.17578 44.1279 6.43164
c12.624 4.28809 23.6475 11.1367 33.0723 20.416c9.91992 9.85645 17.0557 22.1602 21.4238 36.8809c4.36816 14.7832 6.52734 32.1113 6.52734 51.9355v163.808h-36.3994v-166.512c0 -13.4082 -1.00781 -24.5117 -3.00781 -33.5996
c-2.09668 -9.00781 -5.47266 -17.0078 -10.2559 -23.9678c-5.50488 -8.09668 -12.8809 -14.1123 -22.0967 -18.1123c-9.15137 -3.95215 -20.3193 -6 -33.4082 -6c-13.0078 0 -24.0791 2.04785 -33.376 6.08008c-9.19922 4.0957 -16.5439 10.0957 -21.9512 18.0322
c-4.75195 6.95996 -8.17676 14.8154 -10.208 23.3438c-2.0166 8.5918 -3.00879 20.3359 -3.00879 35.1201v165.664h-36.416zM393.792 9.95215v0v22.0479h-275.584v-22.0479h275.584z" />
    <glyph glyph-name="uniF10C" unicode="&#xf10c;" 
d="M469.328 448c23.5518 0 42.6719 -19.1035 42.6719 -42.6719v-426.656c0 -23.5684 -19.1201 -42.6719 -42.6562 -42.6719h-426.672c-23.5518 0 -42.6719 19.1035 -42.6719 42.6562v426.672c0 23.5684 19.1201 42.6719 42.6719 42.6719h426.656zM259.792 54.2559h0.015625
v275.488h-52.96v-107.584h-50.5918v107.584h-52.96v-275.488h52.96v138.592h50.5762v-138.592h52.96zM408.752 54.2559v0v275.504h-44.1279c-6.7041 -18.9922 -27.168 -30.7041 -56.5439 -32.3682v-27.8721h47.7119v-215.264h52.96z" />
    <glyph glyph-name="uniF123" unicode="&#xf123;" 
d="M469.328 448c23.5684 0 42.6719 -19.1035 42.6719 -42.6719v-426.656c0 -23.5684 -19.1035 -42.6719 -42.6562 -42.6719h-426.672c-23.5684 0 -42.6719 19.1035 -42.6719 42.6562v426.672c0 23.5684 19.1035 42.6719 42.6719 42.6719h426.656zM414.944 185.312h0.015625
v13.4248c0 13.9355 -11.3604 25.2959 -25.2959 25.2959h-101.68v102.384c0 13.9678 -11.3447 25.3115 -25.3125 25.3115h-13.4238c-13.9678 0 -25.2959 -11.376 -25.2959 -25.3115v-102.4h-101.632c-13.9521 0 -25.2959 -11.376 -25.2959 -25.2959v-13.4082
c0 -13.9512 11.3594 -25.3115 25.2959 -25.3115h101.615v-102.384c0 -13.9678 11.3447 -25.2959 25.2969 -25.2959h13.4238c13.9678 0 25.3115 11.3594 25.3115 25.2959v102.384h101.681c13.9355 0 25.2959 11.376 25.2959 25.3115z" />
    <glyph glyph-name="uniF118" unicode="&#xf118;" 
d="M265.6 32.0156h-160l7.08887 31.1523h58.3672l126.832 257.664h-58.624l7.08789 31.1523h160l-7.08789 -31.1523h-58.3672l-126.832 -257.664h58.624z" />
    <glyph glyph-name="uniF124" unicode="&#xf124;" 
d="M306.592 351.984l-76.5596 -106.561l77.7275 -112.88h-65.4873l-47.2324 72l-48.1436 -72h-62.5605l77.8398 110.528l-76.208 108.912h65.3281l45.6641 -68.3203l46.9121 68.3203h62.7197zM370.16 56.5439h0.015625v-0.0800781h57.5205v-24.4961h-100.433v21.1523
c7.64844 5.53613 15.376 11.4395 23.0566 17.6641c7.69531 6.25586 13.8721 11.6318 18.4961 16.1914c6.94336 6.68848 11.8721 12.5439 14.8154 17.5361c2.89648 4.97656 4.33594 9.9043 4.33594 14.752c0 5.87207 -1.90332 10.3848 -5.63184 13.5361
c-3.75977 3.18457 -9.2002 4.78418 -16.208 4.78418c-5.28027 0 -10.8164 -1.05566 -16.624 -3.24805c-5.83984 -2.20801 -11.2002 -4.95996 -16.1924 -8.33594h-2.75195v28.4316c4.04883 1.77637 10.0645 3.53613 18 5.3125c7.9209 1.77539 15.8564 2.6875 23.8242 2.6875
c16.0322 0 28.2881 -3.37598 36.6885 -10.1279c8.41602 -6.71973 12.624 -16.2236 12.624 -28.5596c0 -8.04785 -2.03223 -15.7441 -6.06445 -23.0244c-4.03223 -7.24805 -10.1758 -14.752 -18.4961 -22.4639c-5.21582 -4.84766 -10.4316 -9.24805 -15.7119 -13.3115
c-5.28027 -4.03223 -9.02344 -6.83203 -11.2637 -8.40039z" />
    <glyph glyph-name="uniF115" unicode="&#xf115;" 
d="M448 42.667c0 -23.5732 -19.0938 -42.667 -42.667 -42.667h-298.666c-23.5732 0 -42.667 19.0938 -42.667 42.667v298.666c0 23.5732 19.0938 42.667 42.667 42.667h298.666c23.5732 0 42.667 -19.0938 42.667 -42.667v-298.666zM181.333 160l-74.666 -96h298.666
l-96 128l-74.666 -96.1064z" />
    <glyph glyph-name="uniF121" unicode="&#xf121;" 
d="M469.328 448c23.5684 0 42.6719 -19.1035 42.6719 -42.6719v-426.656c0 -23.5684 -19.1035 -42.6719 -42.6562 -42.6719h-426.672c-23.5684 0 -42.6719 19.1035 -42.6719 42.6562v426.672c0 23.5684 19.1035 42.6719 42.6719 42.6719h426.656zM93.3281 292.096v0
l0.015625 -17.3916h51.5684v17.4082h-14.2881v57.3281h-20.5283l-0.160156 -2.46484c-0.0791016 -1.37598 -0.431641 -2.54395 -0.991211 -3.37598c-0.52832 -0.832031 -1.37598 -1.53516 -2.54395 -2.08008c-1.12012 -0.543945 -2.56055 -0.911133 -4.32031 -1.13574
c-1.98438 -0.271484 -3.98438 -0.399414 -6.08008 -0.399414h-2.67188v-16.6406h14.6074v-31.248h-14.6074zM145.344 75.7275c1.42383 3.04004 2.12793 6.41602 2.04785 9.95215c0 3.23242 -0.55957 5.9043 -1.59961 7.85645
c-1.02441 2.01562 -2.36816 3.72754 -4.16016 5.26367c-1.28027 1.12012 -2.67188 2 -4.17578 2.68848c1.55176 1.02344 2.95996 2.33594 4.17578 3.85547c2.67188 3.42383 4.0166 7.2959 4.0166 11.584c0 3.34473 -0.704102 6.22461 -2.14453 8.7207
c-1.42383 2.51172 -3.58398 4.62402 -6.41602 6.28711c-2.28809 1.4082 -5.12012 2.46484 -8.62402 3.23242c-6.65625 1.61621 -16.2402 1.67969 -25.1201 -0.240234c-4.28809 -0.912109 -7.82422 -1.91992 -10.4473 -2.95996l-1.66406 -0.671875v-19.0078h5.07129
l0.608398 0.368164c2.97559 1.71191 5.93555 3.02344 8.99219 3.93555c4.44727 1.3125 7.59961 1.53613 12.1279 1.15234c1.3916 -0.224609 2.51172 -0.511719 3.3916 -0.927734c0.704102 -0.304688 1.24805 -0.704102 1.69629 -1.26465
c0.335938 -0.416016 0.399414 -1.05566 0.399414 -1.53613c0 -1.74316 -0.351562 -2.36719 -0.527344 -2.5752c-0.383789 -0.560547 -0.959961 -1.00879 -1.79199 -1.36035c-1.04004 -0.400391 -2.33594 -0.704102 -3.79199 -0.832031
c-1.74414 -0.144531 -3.74414 -0.240234 -5.96777 -0.240234h-6.52832v-17.2637h6.36816c1.23145 0 2.55957 -0.0166016 3.90332 -0.0644531l1.77637 -0.0478516c1.95215 -0.0634766 3.4082 -0.255859 4.7041 -0.704102
c0.912109 -0.208008 1.66406 -0.671875 2.20801 -1.31152c0.496094 -0.624023 0.736328 -1.55176 0.736328 -2.86426c0 -1.95215 -0.352539 -2.83203 -0.608398 -3.21582c-0.448242 -0.719727 -1.04004 -1.36035 -1.82422 -1.9043
c-1.08789 -0.719727 -2.46387 -1.2002 -4.11133 -1.4082c-4.86426 -0.671875 -8.73633 -0.543945 -14.2568 1.15234c-3.35938 1.08789 -6.27148 2.36816 -8.67188 3.83984l-0.655273 0.368164h-5.16895v-19.1035l1.63281 -0.704102
c2.55957 -1.15234 5.96777 -2.17676 10.1592 -3.10449c4.16016 -0.927734 9.16895 -1.36035 14.832 -1.36035c5.15234 0 9.45605 0.544922 13.1201 1.63281c3.71191 1.12012 6.97656 2.6875 9.72852 4.7832c2.92773 2.20801 5.15137 4.88086 6.55957 8zM147.728 168
h0.0488281v18.3037h-25.2324c2.5918 2.03223 5.34375 4.33594 8.17578 6.92871c4.57617 4.27148 8.06445 8.51172 10.3525 12.624c2.33594 4.25586 3.53613 8.7998 3.53613 13.5195c0 7.37598 -2.6084 13.2002 -7.72852 17.2803
c-4.94434 3.91992 -12.0635 5.93555 -21.1523 5.93555c-4.36719 0 -8.83105 -0.479492 -13.1992 -1.47168c-4.54395 -0.992188 -7.83984 -2 -10.1123 -3.04004l-1.56836 -0.704102v-19.4561h4.95996l0.672852 0.463867c2.49512 1.66406 5.21582 3.04004 8 4.12793
c6.67188 2.38477 12.208 1.88867 14.8154 -0.351562c1.36035 -1.13574 2.01562 -2.81641 2.01562 -5.12012c0 -2.0957 -0.607422 -4.25586 -1.91992 -6.51172c-1.42383 -2.40039 -3.91992 -5.34473 -7.43945 -8.73633
c-2.40039 -2.35156 -5.56836 -5.10352 -9.63184 -8.43164c-4.06445 -3.26465 -8.12793 -6.36816 -12.1445 -9.3125l-1.12012 -0.81543v-15.2324h58.6719zM426.672 93.8564v4.28711c0 4.67285 -3.80762 8.49609 -8.52832 8.49609h-196.287
c-4.65625 0 -8.49609 -3.77539 -8.49609 -8.49609v-4.28711c0 -4.7207 3.79199 -8.52832 8.49609 -8.52832h196.287c4.7207 0 8.52832 3.79199 8.52832 8.52832zM426.672 200.528v4.28809c0 4.65527 -3.80762 8.49512 -8.52832 8.49512h-196.287
c-4.65625 0 -8.49609 -3.79199 -8.49609 -8.49512v-4.28809c0 -4.7207 3.79199 -8.52832 8.49609 -8.52832h196.287c4.7207 0 8.52832 3.79199 8.52832 8.52832zM426.672 307.184v4.28809c0 4.67188 -3.80762 8.49609 -8.52832 8.49609h-196.287
c-4.65625 0 -8.49609 -3.79199 -8.49609 -8.49609v-4.28809c0 -4.71973 3.79199 -8.52734 8.49609 -8.52734h196.287c4.7207 0 8.52832 3.80762 8.52832 8.52734z" />
    <glyph glyph-name="uniF10E" unicode="&#xf10e;" 
d="M469.344 448c23.5361 0 42.6562 -19.0879 42.6562 -42.6562v-426.688c0 -23.5684 -19.1201 -42.6719 -42.6562 -42.6719h-426.672c-23.5518 0 -42.6719 19.1035 -42.6719 42.6719v426.688c0 23.5684 19.1357 42.6562 42.6719 42.6562h426.672zM236.944 50.5283v277.04
h-48.3047v-110.641h-58.208v110.641h-48.208v-277.04h48.208v142.512h58.208v-142.512h48.3047zM429.792 72.7842h-0.0322266v0.0478516h-107.248v10.6562c0 13.168 4.99219 21.7441 9.87207 30.0479l2.33594 4.08008c11.8721 20.1914 27.792 36.9121 43.168 53.1035
c26.6719 28.0166 51.8721 54.4805 51.8721 94.6562c0 56.2881 -41.168 68.0957 -75.6641 68.0957c-41.5039 0 -79.8555 -8.33594 -79.8555 -68.9434v-22h48.2402v32.4961c0 20.0156 11.0391 32 29.5518 32c18.5117 0 29.5361 -11.9844 29.5361 -32
c0 -30.3525 -22.7842 -55.4883 -46.9121 -82.0645c-28.3359 -31.2158 -60.4004 -66.6396 -60.4004 -116.192v-26.2393h155.536v22.2559z" />
    <glyph glyph-name="uniF12A" unicode="&#xf12a;" 
d="M299.2 41.5996v132.801c0 19.1992 1.59961 36.7998 6.39941 54.3994c4.80078 17.6006 11.2002 33.6006 20.8008 49.6006c9.59961 14.3994 20.7998 28.7998 35.1992 40c12.8008 11.1992 27.2002 19.1992 44.8008 24v-52.8008
c-11.2002 -4.7998 -19.2002 -11.1992 -27.2002 -19.1992s-14.4004 -19.2002 -19.2002 -30.4004s-9.59961 -22.4004 -11.2002 -35.2002c-1.59961 -12.7998 -3.2002 -24 -1.59961 -33.5996v-1.60059h52.7998v-128h-100.8zM105.6 41.5996h1.60059v132.801
c0 19.1992 1.59961 36.7998 6.39941 54.3994c4.80078 17.6006 11.2002 33.6006 20.8008 49.6006c9.59961 14.3994 20.7998 28.7998 35.1992 40c12.8008 11.1992 27.2002 19.1992 44.8008 24v-52.8008c-11.2002 -4.7998 -19.2002 -11.1992 -27.2002 -19.1992
s-14.4004 -19.2002 -19.2002 -30.4004s-9.59961 -22.4004 -11.2002 -35.2002c-1.59961 -12.7998 -3.2002 -24 -1.59961 -33.5996v-1.60059h51.2002v-128h-100.801z" />
    <glyph glyph-name="uniF10A" unicode="&#xf10a;" 
d="M469.328 448c23.5518 0 42.6719 -19.1035 42.6719 -42.6719v-426.656c0 -23.5684 -19.1201 -42.6719 -42.6562 -42.6719h-426.672c-23.5518 0 -42.6719 19.1035 -42.6719 42.6562v426.672c0 23.5684 19.1201 42.6719 42.6719 42.6719h426.656zM168.096 89.6162
l-71.1035 92.9434l71.0723 92.6406c2.47949 2.46387 3.79199 5.69629 3.79199 9.15137c0 3.47266 -1.34473 6.7207 -3.79199 9.18457l-10.4961 10.4961c-4.87988 4.91211 -13.4404 4.87988 -18.3359 0l-89.3447 -110c-4.03125 -4.03223 -5.50391 -7.12012 -5.50391 -11.4238
c0 -4.36816 1.48828 -7.48828 5.50391 -11.4883l89.3447 -110.336c2.51172 -2.44824 5.72754 -3.80859 9.21582 -3.80859c3.45605 0 6.75195 1.36035 9.16797 3.80859l10.4795 10.4795c2.48047 2.48047 3.80859 5.72852 3.80859 9.18457s-1.34473 6.73535 -3.80859 9.16797z
M319.552 296.752c2.20801 5.85645 -0.751953 12.3682 -6.62402 14.5596l-3.74414 1.45605c-5.87207 2.16016 -12.3672 -0.799805 -14.5752 -6.65527l-90.7041 -240.368c-2.17676 -5.83984 0.799805 -12.3682 6.5918 -14.5918l3.74414 -1.39258
c5.83984 -2.14355 12.3838 0.768555 14.5918 6.56055zM462.08 171.104c4.04785 4 5.50391 7.12012 5.51953 11.5361c0 4.28809 -1.50391 7.39258 -5.50391 11.4082l-89.376 110c-4.84766 4.91211 -13.4395 4.91211 -18.3359 0l-10.4795 -10.4961
c-2.46387 -2.46387 -3.80859 -5.71191 -3.80859 -9.18359s1.36035 -6.73633 3.80859 -9.15234l71.0879 -92.624l-71.0879 -92.9756c-2.46387 -2.44824 -3.80859 -5.72852 -3.80859 -9.18457s1.36035 -6.7041 3.80859 -9.16797l10.4795 -10.4473
c2.44824 -2.49609 5.69629 -3.82422 9.16797 -3.82422c3.47266 0 6.75195 1.37598 9.15234 3.77539z" />
    <glyph glyph-name="uniF104" unicode="&#xf104;" 
d="M392.784 130.08c0 -15.5039 -3.12012 -29.2803 -9.34375 -41.4717c-6.22461 -12.1924 -14.7842 -22.2881 -25.6641 -30.2881c-12.5928 -9.47266 -26.4326 -16.1924 -41.5684 -20.1924c-15.0879 -4.03223 -34.2236 -6 -57.4082 -6h-139.584v319.729h124.128
c25.7441 0 44.6406 -0.848633 56.6084 -2.56055c11.9355 -1.71191 23.7754 -5.53613 35.5361 -11.376c12.1602 -6.16016 21.2158 -14.4004 27.1836 -24.8477c5.93652 -10.3359 8.87988 -22.2246 8.87988 -35.5361c0 -15.4717 -4.06348 -29.0557 -12.2236 -40.8799
c-8.19238 -11.8086 -19.7119 -21.0244 -34.5918 -27.6318v-1.71289c20.9121 -4.12793 37.4717 -12.7197 49.7119 -25.7432c12.2402 -12.9922 18.3359 -30.1768 18.3359 -51.4883zM287.12 261.488c0 5.24805 -1.3125 10.5918 -3.96777 15.8721
c-2.62402 5.31152 -7.3125 9.24805 -14.0645 11.8398c-6 2.25586 -13.5039 3.50391 -22.3994 3.71191c-8.97656 0.191406 -21.5361 0.320312 -37.7129 0.320312h-7.71191v-67.6641h12.8799c13.0566 0 24.1289 0.255859 33.3125 0.655273
c9.15234 0.432617 16.3682 1.87207 21.6641 4.32031c7.47168 3.28027 12.3516 7.56836 14.6074 12.7842c2.27246 5.21582 3.39258 11.2803 3.39258 18.1602zM307.088 131.328c0 10.1914 -1.96777 18.0322 -5.83984 23.5361
c-3.96777 5.50391 -10.624 9.66406 -20.0645 12.3359c-6.39941 1.87207 -15.2637 2.87988 -26.5752 3.00781c-11.2803 0.160156 -23.0566 0.223633 -35.3447 0.223633h-17.9834v-79.6641h6c23.1201 0 39.6797 0.0644531 49.7119 0.256836
c9.96777 0.0957031 19.2002 1.96777 27.6641 5.56738c8.55957 3.60059 14.4316 8.33594 17.6641 14.3203c3.18359 5.85547 4.76758 12.7041 4.76758 20.416z" />
    <glyph glyph-name="uniF107" unicode="&#xf107;" 
d="M469.328 448c23.5518 0 42.6719 -19.1035 42.6719 -42.6719v-426.656c0 -23.5684 -19.1201 -42.6719 -42.6562 -42.6719h-426.672c-23.5518 0 -42.6719 19.1035 -42.6719 42.6562v426.672c0 23.5684 19.1201 42.6719 42.6719 42.6719h426.656zM400.416 92.0156
l-100 99.9844l100.016 99.9844c6.12793 6.17578 6.12793 16.0801 0 22.208l-22.2236 22.208c-6.16016 6.15918 -16.0801 6.15918 -22.2559 0l-99.9521 -99.9844l-99.9521 99.9844c-6.17578 6.15918 -16.0801 6.15918 -22.2559 0l-22.208 -22.208
c-6.12793 -6.12793 -6.12793 -16.0322 0 -22.208l100 -99.9844l-100 -99.9678c-6.12793 -6.16016 -6.12793 -16.0801 0 -22.208l22.208 -22.208c6.17578 -6.17578 16.0801 -6.17578 22.208 0l100 99.9678l99.9355 -99.9844c6.17676 -6.17578 16.0967 -6.17578 22.2568 0
l22.2236 22.208c6.12793 6.12793 6.12793 16.0488 0 22.208z" />
    <glyph glyph-name="uniF113" unicode="&#xf113;" 
d="M429.2 48c8.81543 0 16 -7.15234 16 -16v-16c0 -8.84766 -7.18457 -16 -16 -16h-336h-16c-8.84863 0 -16 7.15234 -16 16v16v336c0 8.84766 7.15137 16 16 16h16c8.81543 0 16 -7.15234 16 -16v-320h320zM164.384 79.1836c-17.6797 0 -32 14.3525 -32.0156 32.0322
c0 17.6641 14.3359 32 32 32c0.975586 0 1.87207 -0.223633 2.84766 -0.288086l47.7764 67.6641c-1.64844 3.87207 -2.62402 8.14453 -2.62402 12.624c0 17.6641 14.3359 32 32 32c17.6797 0 32 -14.3359 32 -32c0 -0.912109 -0.192383 -1.75977 -0.255859 -2.65625
l37.4072 -31.3594c3.4082 1.23145 7.04004 2.01562 10.8486 2.01562c0.223633 0 0.368164 -0.0634766 0.55957 -0.0634766l66.8486 111.023c-3.12012 4.92773 -4.99219 10.7363 -4.99219 17.0078c0 17.6641 14.3193 32 32 32c17.6797 0 32 -14.3359 32 -32
c0 -17.1836 -13.5684 -31.1035 -30.5918 -31.8555l-67.9043 -112.8c2.52832 -4.56055 4.0957 -9.74414 4.0957 -15.3447c0 -17.6641 -14.3193 -32 -32 -32c-17.6797 0 -32 14.3359 -32 32c0 1.85645 0.240234 3.71289 0.560547 5.48828l-35.2168 29.5205
c-4.06348 -1.9043 -8.55957 -3.00879 -13.3438 -3.00879c-1.2959 0 -2.44824 0.208008 -3.66406 0.352539l-47.3438 -67.0078c1.8877 -4.08008 3.00781 -8.56055 3.00781 -13.3447c0 -17.6641 -14.3193 -32 -32 -32z" />
    <glyph glyph-name="uniF110" unicode="&#xf110;" 
d="M416 384c17.6641 0 32 -14.3359 32 -32v-320c0 -17.6641 -14.3359 -32 -32 -32h-320c-17.6641 0 -32 14.3359 -32 32v320c0 17.6641 14.3359 32 32 32h320zM132.784 88.3838c3.64746 -3.61621 9.58398 -3.61621 13.248 0l86.3359 85.5039
c3.31152 3.2959 4.35156 5.50391 4.35156 8.83203c0 3.28027 -1.04004 5.48828 -4.35156 8.78418l-86.3359 85.5205c-3.64844 3.64746 -9.58398 3.64746 -13.248 0l-10.1279 -10.1602c-3.66406 -3.63184 -3.66406 -9.58398 0 -13.248l70.9121 -70.9121l-70.9287 -70.9121
c-3.64746 -3.64844 -3.64746 -9.58398 0 -13.248zM384 90.9922v10.0635c0 6.06445 -4.91211 10.9766 -10.9756 10.9766h-138.064c-6.06348 0 -10.9922 -4.91211 -10.9922 -10.9766v-10.0635c0 -6.06445 4.92871 -10.9922 10.9922 -10.9922h138.064
c6.06348 0 10.9756 4.92773 10.9756 10.9922z" />
    <glyph glyph-name="uniF11F" unicode="&#xf11f;" 
d="M469.328 448c23.5684 0 42.6719 -19.1035 42.6719 -42.6719v-426.656c0 -23.5684 -19.1035 -42.6719 -42.6562 -42.6719h-426.672c-23.5684 0 -42.6719 19.1035 -42.6719 42.6562v426.672c0 23.5684 19.1035 42.6719 42.6719 42.6719h426.656zM149.328 78.3838v35.2324
c0 7.95215 -6.48047 14.3838 -14.416 14.3838h-35.168c-7.93652 0 -14.416 -6.43164 -14.416 -14.4004v-35.2158c0 -7.95215 6.47949 -14.3838 14.416 -14.3838h35.168c7.93555 0 14.416 6.43164 14.416 14.3838zM149.328 185.056v35.2168
c0 7.95117 -6.48047 14.3838 -14.416 14.3838h-35.168c-7.93652 0 -14.416 -6.43262 -14.416 -14.3838v-35.2168c0 -7.95215 6.47949 -14.3838 14.416 -14.3838h35.168c7.93555 0 14.416 6.41602 14.416 14.3838zM149.328 291.776v35.1201
c0 7.96777 -6.48047 14.4316 -14.416 14.4316h-35.168c-7.93652 0 -14.416 -6.44824 -14.416 -14.4316v-35.1201c0 -7.98438 6.47949 -14.4326 14.416 -14.4326h35.168c7.93555 0 14.416 6.44824 14.416 14.4326zM426.672 93.8564v4.28711
c0 4.67285 -3.80762 8.49609 -8.52832 8.49609h-196.239c-4.7041 0 -8.54395 -3.77539 -8.54395 -8.49609v-4.28711c0 -4.7207 3.83984 -8.52832 8.54395 -8.52832h196.239c4.67285 0 8.52832 3.79199 8.52832 8.52832zM426.672 200.528v4.28809
c0 4.65527 -3.80762 8.49512 -8.52832 8.49512h-196.239c-4.7041 0 -8.54395 -3.79199 -8.54395 -8.49512v-4.28809c0 -4.7207 3.83984 -8.52832 8.54395 -8.52832h196.239c4.67285 0 8.52832 3.79199 8.52832 8.52832zM426.672 307.184v4.28809
c0 4.67188 -3.80762 8.49609 -8.52832 8.49609h-196.239c-4.7041 0 -8.54395 -3.79199 -8.54395 -8.49609v-4.28809c0 -4.71973 3.83984 -8.52734 8.54395 -8.52734h196.239c4.67285 0 8.52832 3.80762 8.52832 8.52734z" />
    <glyph glyph-name="uniF11E" unicode="&#xf11e;" 
d="M434.384 336c7.53613 0 13.6162 -6.0957 13.6162 -13.5996v-4.80078c0 -7.51953 -6.0957 -13.6152 -13.5996 -13.6152h-244.816c-7.51953 0 -13.5996 6.0957 -13.5996 13.6152v4.80078c0 7.50391 6.0957 13.5996 13.5996 13.5996h244.8zM434.384 208
c7.53613 0 13.6162 -6.0957 13.6318 -13.5996v-4.81641c0 -7.51953 -6.0957 -13.6162 -13.6152 -13.6162h-244.816c-7.51953 0 -13.5996 6.09668 -13.5996 13.6162v4.81641c0 7.50391 6.0957 13.5996 13.5996 13.5996h244.8zM434.384 80
c7.53613 0 13.6162 -6.0957 13.6318 -13.5996v-4.81641c0 -7.51953 -6.0957 -13.6162 -13.6152 -13.6162h-244.816c-7.51953 0 -13.5996 6.09668 -13.5996 13.6162v4.81641c0 7.50391 6.0957 13.5996 13.5996 13.5996h244.8zM112 352c8.83203 0 16 -7.15234 16 -16v-32
c0 -8.84766 -7.16797 -16 -16 -16h-32c-8.83203 0 -16 7.15234 -16 16v32c0 8.84766 7.16797 16 16 16h32zM112 224c8.83203 0 16 -7.15234 16 -16v-32c0 -8.84766 -7.16797 -16 -16 -16h-32c-8.83203 0 -16 7.15234 -16 16v32c0 8.84766 7.16797 16 16 16h32zM112 96
c8.83203 0 16 -7.15234 16 -16v-32c0 -8.84766 -7.16797 -16 -16 -16h-32c-8.83203 0 -16 7.15234 -16 16v32c0 8.84766 7.16797 16 16 16h32z" />
    <glyph glyph-name="uniF11A" unicode="&#xf11a;" 
d="M61.5996 38.9121v299.968h56.0166v-133.184h0.78418c8.81543 23.6318 23.1992 50 35.1992 72.0312l32.8008 61.1523h63.1992l-74 -128.784l77.584 -171.184h-63.168l-52.832 118.368l-19.584 -32.3682v-86h-56zM263.616 338.88h186.784v-44h-65.2002v-255.968h-55.9844
v255.968h-65.6162v44h0.0166016z" />
    <glyph glyph-name="uniF11C" unicode="&#xf11c;" 
d="M280.192 235.552l-19.3447 -19.3594l19.3447 -19.376l19.376 19.376c16.0312 16.0156 42.0312 16.0156 58.0801 0l77.4238 -77.4248c16.0312 -16.0479 16.0312 -42.0635 0 -58.0957l-67.7441 -67.7441c-16.0322 -16.0312 -42.0322 -16.0312 -58.0645 0l-77.4395 77.4404
c-16.0479 16.0156 -16.0479 42.0322 0 58.0801l19.3438 19.3438l-19.3438 19.3604l-19.376 -19.3604c-16.0322 -16.0479 -42.0322 -16.0479 -58.0645 0l-77.4395 77.4238c-16.0479 16.0479 -16.0479 42.0479 0 58.0957l67.7441 67.7441
c16.0479 16.0479 42.0312 16.0479 58.0635 0l77.4404 -77.4238c16.0479 -16.0479 16.0479 -42.0322 0 -58.0801zM318.912 177.488l-9.66406 -9.69629l4.83203 -4.83203c8.01562 -8.03223 8.01562 -21.0078 0 -29.0244c-8.01562 -8.03125 -21.0244 -8.03125 -29.04 0
l-4.84766 4.84863l-9.66406 -9.69629c-5.36035 -5.32812 -5.36035 -13.9844 0 -19.3604l58.0801 -58.0635c5.34375 -5.36035 14.0156 -5.36035 19.3438 0l48.3994 48.3838c5.34473 5.34375 5.34473 14.0166 0 19.3438l-58.0791 58.0967
c-5.32812 5.34375 -14.0166 5.34375 -19.3604 0zM193.088 206.512l9.66406 9.69629l-4.83203 4.83203c-8.01562 8.01562 -8.01562 21.0078 0 29.0078c8.01562 8.04785 21.0244 8.04785 29.04 0l4.84766 -4.83203l9.66406 9.68066c5.36035 5.34375 5.36035 14 0 19.376
l-58.0801 58.0635c-5.34375 5.34375 -14 5.34375 -19.3594 0l-48.3838 -48.3838c-5.34473 -5.34375 -5.36035 -14.0166 0 -19.3438l58.0791 -58.0967c5.34473 -5.34375 14.0166 -5.34375 19.3604 0z" />
    <glyph glyph-name="uniF116" unicode="&#xf116;" 
d="M410.304 384c20.7686 0 37.6963 -16.9277 37.6963 -37.6963v-26.3037v-96v-16v-80v-16v-74.3037c0 -20.7686 -16.8965 -37.6963 -37.6963 -37.6963h-90.3037h-16h-96h-16h-90.3037c-20.7686 0 -37.6963 16.9277 -37.6963 37.6963v74.3037v16v80v16v96v26.3037
c0 20.7686 16.8965 37.6963 37.6963 37.6963h90.3037h16h96h16h90.3037zM208 224h96v96h-96v-96zM304 208h-96v-80h96v80zM80 320v-96h112v96h-112zM80 208v-80h112v80h-112zM101.696 16h90.3037v96h-112v-74.3037c0 -11.9688 9.72754 -21.6963 21.6963 -21.6963zM208 16h96
v96h-96v-96zM432 37.6963v74.3037h-112v-96h90.3037c11.9688 0 21.6963 9.72754 21.6963 21.6963zM432 128v80h-112v-80h112zM432 224v96h-112v-96h112z" />
    <glyph glyph-name="uniF112" unicode="&#xf112;" 
d="M469.328 448c23.5518 0 42.6719 -19.1035 42.6719 -42.6719v-426.656c0 -23.5684 -19.1201 -42.6719 -42.6562 -42.6719h-426.672c-23.5518 0 -42.6719 19.1035 -42.6719 42.6562v426.672c0 23.5684 19.1201 42.6719 42.6719 42.6719h426.656zM359.552 53.1035h-0.015625
v47.6641h-128.32l80.4482 82v13.792l-78.832 86.6729h122.544v47.6475h-201.12v-46.9922l85.7441 -94.0801l-87.584 -90.4961v-46.208h207.136z" />
    <glyph glyph-name="uniF114" unicode="&#xf114;" 
d="M469.328 448c23.5518 0 42.6719 -19.1035 42.6719 -42.6719v-426.656c0 -23.5684 -19.1201 -42.6719 -42.6562 -42.6719h-426.672c-23.5518 0 -42.6719 19.1035 -42.6719 42.6562v426.672c0 23.5684 19.1201 42.6719 42.6719 42.6719h426.656zM175.744 148.992
c-16.1602 0 -29.2002 -13.1201 -29.2324 -29.2324c0 -16.1758 13.0879 -29.2314 29.248 -29.2314c16.1279 0 29.2158 13.0557 29.2158 29.2314c0 6.7041 -2.35156 12.832 -6.15918 17.7764l45.9512 77.04c1.36035 -0.192383 2.67285 -0.416016 4.06445 -0.416016
c3.87207 0 7.53613 0.81543 10.8799 2.16016l36.0801 -39.792c-1.93555 -3.91992 -3.13574 -8.27246 -3.13574 -12.9443c0 -16.1436 13.0879 -29.2158 29.248 -29.2158s29.2158 13.0723 29.2158 29.2158c0 6.68848 -2.35254 12.8164 -6.12793 17.7119l59.9834 99.7119
c1.50488 -0.208008 3.00879 -0.431641 4.6084 -0.431641c16.1602 0 29.2158 13.0879 29.2158 29.2158c0 16.1602 -13.0557 29.248 -29.2158 29.248c-16.1924 0 -29.248 -13.0879 -29.248 -29.248c0 -6.7998 2.40039 -12.96 6.28809 -17.9199l-59.8877 -99.5039
c-1.58398 0.240234 -3.2002 0.479492 -4.86426 0.479492c-3.64844 0 -7.10449 -0.751953 -10.3203 -1.9834l-36.3682 40.1279c1.80859 3.79199 2.86426 7.95215 2.86426 12.416c0 16.1436 -13.0879 29.2002 -29.2314 29.2002c-16.1768 0 -29.248 -13.0566 -29.248 -29.2002
c0 -6.99219 2.55957 -13.2959 6.62402 -18.3359l-45.6807 -76.5605c-1.55176 0.224609 -3.13574 0.480469 -4.76758 0.480469zM448 14.6396v13.4248c0 8.0791 -6.54395 14.624 -14.624 14.624h-326.704v326.703c0 8.08008 -6.57617 14.624 -14.624 14.624h-13.4082
c-8.0957 0 -14.6553 -6.54395 -14.6553 -14.624v-341.327v-13.4248c0 -8.08008 6.55957 -14.6396 14.6074 -14.6396h0.0322266h13.4082h341.344c8.08008 0 14.624 6.55957 14.624 14.6396z" />
    <glyph glyph-name="uniF10F" unicode="&#xf10f;" 
d="M236.736 182.72c0 -3.32812 -1.05664 -5.53613 -4.36816 -8.83203l-86.3359 -85.5039c-3.63184 -3.64746 -9.58398 -3.64746 -13.248 0l-10.1445 10.1602c-3.66406 3.63184 -3.66406 9.58398 0 13.248l70.9443 70.9121l-70.9277 70.9121
c-3.66406 3.64746 -3.66406 9.58398 0 13.248l10.1279 10.1602c3.63184 3.64746 9.58398 3.64746 13.248 0l86.3359 -85.5205c3.31152 -3.2959 4.36816 -5.50391 4.36816 -8.78418zM410.288 384c20.7676 0 37.7119 -16.9277 37.7119 -37.6963v-308.607
c0 -20.7686 -16.9121 -37.6963 -37.7119 -37.6963h-308.576c-20.7842 0 -37.7119 16.9277 -37.7119 37.7119v308.592c0 20.7686 16.9277 37.6963 37.7119 37.6963h308.576zM432 37.6963v308.607c0 11.9688 -9.71191 21.6963 -21.7119 21.6963h-308.576
c-11.9678 0 -21.7119 -9.72754 -21.7119 -21.6963v-308.607c0 -11.9688 9.74414 -21.6963 21.7119 -21.6963h308.576c11.9678 0 21.7119 9.72754 21.7119 21.6963zM373.024 112c6.06348 0 10.9756 -4.92773 10.9756 -10.9922v-10.0635
c0 -6.06445 -4.91211 -10.9766 -10.9756 -10.9766h-138.064c-6.06348 0 -10.9922 4.91211 -10.9922 10.9766v10.0635c0 6.06445 4.92871 10.9922 10.9922 10.9922h138.064z" />
    <glyph glyph-name="uniF108" unicode="&#xf108;" 
d="M371.105 226.025l-150.63 -150.629l-81.1182 81.1182l150.629 150.63zM405.904 283.968c6.39941 -6.38379 6.41602 -16.7676 0 -23.1836l-23.1846 -23.168l-81.0879 81.1201l23.1523 23.168c6.39941 6.39941 16.7842 6.39941 23.1836 0zM118.48 131.056
c1.90332 5.28027 3.53516 8.06445 9.31152 13.8721l81.1045 -81.1201c-5.77637 -5.77539 -8.56055 -7.42383 -13.8408 -9.32715l-71.8398 -16.208c-5.9834 -2.16016 -12.6562 -0.65625 -17.1357 3.82324c-4.48047 4.48047 -5.96777 11.1523 -3.82422 17.1367z" />
    <glyph glyph-name="uniF120" unicode="&#xf120;" 
d="M434.4 338.72c7.50391 0 13.5996 -6.0957 13.5996 -13.6162v-4.81543c0 -7.50391 -6.0957 -13.5996 -13.5996 -13.5996h-244.801c-7.50391 0 -13.5996 6.0957 -13.5996 13.5996v4.81543c0 7.52051 6.08008 13.6162 13.584 13.6162h244.816zM434.4 210.72
c7.50391 0 13.5996 -6.0957 13.5996 -13.6162v-4.81543c0 -7.50391 -6.0957 -13.5996 -13.5996 -13.5996h-244.816c-7.50391 0 -13.5996 6.0957 -13.5996 13.5996v4.81543c0 7.52051 6.0957 13.6162 13.5996 13.6162h244.816zM434.4 82.7197
c7.50391 0 13.5996 -6.0957 13.5996 -13.6162v-4.81543c0 -7.50391 -6.0957 -13.5996 -13.5996 -13.5996h-244.816c-7.50391 0 -13.5996 6.0957 -13.5996 13.5996v4.81543c0 7.52051 6.0957 13.6162 13.5996 13.6162h244.816zM124 290.064v0l0.015625 -14.6406h-56v14.6562
h17.6807v44.3516h-17.6807v13.6641c2.7207 0 5.2959 0.12793 7.79199 0.463867c2.49609 0.336914 4.52832 0.880859 6.19238 1.68066c1.96777 0.912109 3.3916 2.11133 4.40039 3.66406c0.943359 1.47168 1.51953 3.34375 1.66406 5.64746h18.6553v-69.4873h17.2803z
M98.5762 174.992c-3.37598 -2.64062 -5.75977 -4.40039 -7.2002 -5.4082h36.624v-15.6162h-64v13.4727c4.92773 3.55176 9.80762 7.31152 14.7363 11.2959c4.87988 3.96777 8.81543 7.40723 11.7754 10.3037c4.43262 4.25586 7.56836 8 9.44043 11.168
c1.82422 3.18359 2.78418 6.33594 2.78418 9.42383c0 3.69629 -1.2168 6.57617 -3.61621 8.62402c-2.38379 2.0166 -5.83984 3.00781 -10.3203 3.00781c-3.37598 0 -6.89551 -0.719727 -10.5918 -2.0957c-3.72754 -1.3916 -7.16797 -3.15234 -10.3359 -5.31152h-1.72852
v18.1279c2.56055 1.13574 6.43262 2.30371 11.4727 3.40723c5.02344 1.12012 10.1279 1.66406 15.1836 1.66406c10.2246 0 18 -2.11133 23.376 -6.38379c5.37598 -4.33594 8.03223 -10.3994 8.03223 -18.2402c0 -5.13574 -1.24805 -10.0312 -3.83984 -14.6875
c-2.56055 -4.64062 -6.48047 -9.37598 -11.792 -14.3359c-3.3125 -3.00781 -6.65625 -5.85645 -10 -8.41602zM122.208 64.2402c1.77637 -1.58398 3.16797 -3.34375 4.20801 -5.42383c1.07227 -2 1.58398 -4.7207 1.58398 -8.09668
c0 -3.79199 -0.719727 -7.4082 -2.24023 -10.7041c-1.50391 -3.34375 -3.83984 -6.12793 -6.95996 -8.47949c-3.05566 -2.27246 -6.62402 -4.04785 -10.7676 -5.24805c-4.12793 -1.24805 -9.10449 -1.83984 -15.0078 -1.83984c-6.7207 0 -12.4805 0.543945 -17.2803 1.56738
c-4.7998 1.10449 -8.73633 2.25684 -11.7441 3.56836v17.8398h2.1123c3.12012 -1.93555 6.84766 -3.53613 11.1992 -4.94336c4.32031 -1.37695 8.28809 -2.09668 11.8887 -2.09668c2.0957 0 4.41602 0.224609 6.87988 0.560547
c2.49609 0.319336 4.5918 1.10352 6.28809 2.25586c1.31152 0.912109 2.38379 1.9834 3.2002 3.26367c0.81543 1.28027 1.18359 3.16797 1.18359 5.60059c0 2.38379 -0.543945 4.19141 -1.63184 5.50391c-1.12012 1.2793 -2.56055 2.22363 -4.30371 2.71973
c-1.76074 0.639648 -3.91992 0.895508 -6.41602 0.992188c-2.52832 0.03125 -4.84863 0.0957031 -6.99219 0.0957031h-4.48047v14.4639h4.65625c2.81641 0 5.3125 0.0957031 7.48828 0.288086c2.19141 0.208008 4.03125 0.624023 5.56738 1.24805
c1.60059 0.688477 2.81641 1.61621 3.60059 2.78418c0.81543 1.08789 1.21582 2.75195 1.21582 4.99219c0 1.61523 -0.431641 2.95996 -1.28027 3.95117c-0.81543 0.992188 -1.87207 1.77637 -3.15137 2.33691c-1.37598 0.655273 -3.07227 1.08789 -4.99219 1.34375
c-1.95215 0.191406 -3.58398 0.319336 -4.95996 0.319336c-3.44043 0 -7.12012 -0.575195 -11.1045 -1.75977c-4 -1.18359 -7.90332 -2.84766 -11.6475 -5.04004h-2v17.5684c2.99121 1.21582 7.05566 2.38379 12.1758 3.47168
c5.12012 1.10449 10.3037 1.66406 15.5684 1.66406c5.15137 0 9.64746 -0.416016 13.4873 -1.34375c3.87207 -0.879883 7.04004 -2.06445 9.53613 -3.56836c2.95996 -1.77539 5.18457 -3.93555 6.62402 -6.46387c1.47168 -2.57617 2.19238 -5.50391 2.19238 -8.97559
c0 -4.46387 -1.4082 -8.46387 -4.19238 -12.0322c-2.76758 -3.53613 -6.46387 -5.80762 -11.0557 -6.78418v-0.751953c1.87207 -0.303711 3.83984 -0.78418 5.8877 -1.53613c2.03223 -0.767578 3.95215 -1.87207 5.66406 -3.31152z" />
    <glyph glyph-name="uniF117" unicode="&#xf117;" 
d="M469.328 448c23.5518 0 42.6719 -19.1035 42.6719 -42.6719v-426.656c0 -23.5684 -19.1201 -42.6719 -42.6562 -42.6719h-426.672c-23.5684 0 -42.6719 19.1035 -42.6719 42.6562v426.672c0 23.5684 19.1035 42.6719 42.6719 42.6719h426.656zM170.672 0v85.3281
h-106.672v-49.0557c0 -21.8887 12.2725 -36.2725 34.1436 -36.2725h72.5283zM170.672 106.672v85.3281h-106.672v-85.3281h106.672zM170.672 213.328v85.3438h-106.672v-85.3438h106.672zM320 0v85.3281h-128v-85.3281h128zM320 106.672v85.3281h-128v-85.3281h128z
M320 213.328v85.3438h-128v-85.3438h128zM448 36.2725v49.0557h-106.672v-85.3281h72.5439c21.8721 0 34.1279 14.3838 34.1279 36.2725zM448 106.672v85.3281h-106.672v-85.3281h106.672zM448 213.328v85.3438h-106.672v-85.3438h106.672zM448 320v27.7275
c0 21.8721 -12.2725 36.2725 -34.1279 36.2725h-313.6c-21.8721 0 -36.2725 -14.4004 -36.2725 -36.2725v-27.7275h384z" />
    <glyph glyph-name="uniF103" unicode="&#xf103;" 
d="M469.328 448c23.5518 0 42.6719 -19.1035 42.6719 -42.6719v-426.656c0 -23.5684 -19.1201 -42.6719 -42.6562 -42.6719h-426.672c-23.5518 0 -42.6719 19.1035 -42.6719 42.6562v426.672c0 23.5684 19.1201 42.6719 42.6719 42.6719h426.656zM381.632 192.48
c7.00781 0 12.7041 5.50391 12.6885 12.4951c0 4.30469 -2.16016 7.47266 -5.37598 10.1768l-124.112 124.159c-4.75195 4.75293 -13.168 4.75293 -17.9199 0l-125.536 -125.535c-3.63184 -3.63281 -4.71973 -8.92871 -2.75195 -13.6484s6.6084 -7.64746 11.7119 -7.64746
h65.8721v-139.856c0 -6.99219 6.22363 -11.5518 13.248 -11.5518h88.9121c7.00781 0 11.376 4.55957 11.376 11.5518v139.856h71.6318h0.255859z" />
    <glyph glyph-name="uniF122" unicode="&#xf122;" 
d="M397.136 224c9.64844 0 18.8643 -4.89648 18.8643 -14.5439v-34.9121c0 -9.64746 -9.21582 -14.5439 -18.8643 -14.5439h-125.136v-125.136c0 -9.64844 -4.89648 -18.8643 -14.5283 -18.8643h-34.9434c-9.63184 0 -14.5283 9.21582 -14.5283 18.8643v125.136h-125.136
c-9.64844 0 -18.8643 4.89648 -18.8643 14.5439v34.9121c0 9.64746 9.21582 14.5439 18.8643 14.5439h125.136v125.136c0 9.64844 4.89648 18.8643 14.5283 18.8643h34.9434c9.63184 0 14.5283 -9.21582 14.5283 -18.8643v-125.136h125.136z" />
    <glyph glyph-name="uniF109" unicode="&#xf109;" 
d="M469.456 195.392c4.24023 -4.27148 7.05566 -8.43164 7.00781 -15.0557c0 -6.73633 -2.7998 -10.8799 -7.02344 -15.1035l-97.7129 -113.104c-3.31152 -3.32812 -7.74316 -5.16797 -12.4951 -5.16797c-4.78418 0 -9.2168 1.83984 -12.5928 5.2002l-11.4717 11.4883
c-3.37598 3.34375 -5.18359 7.79199 -5.18359 12.5439c0 4.73535 1.80762 9.18359 5.15137 12.5439l75.1846 91.5674l-75.1201 92.2402c-3.37598 3.32812 -5.21582 7.79199 -5.21582 12.5439s1.80762 9.18457 5.21582 12.5605l11.4717 11.4717
c6.71973 6.6875 18.3682 6.6875 25.0879 0zM182.048 285.088c-0.0322266 -4.75195 -1.87207 -9.21582 -5.21582 -12.5439l-75.1523 -92.2236l75.1846 -91.5684c3.34375 -3.36035 5.18359 -7.80762 5.18359 -12.5283c0 -4.76758 -1.83984 -9.21582 -5.21582 -12.5596
l-11.4404 -11.4883c-3.37598 -3.35938 -7.83984 -5.2002 -12.5918 -5.2002s-9.18359 1.84082 -12.5596 5.2168l-97.6641 113.04c-4.25586 4.22363 -7.07227 8.39941 -7.07227 15.1191c0 6.6084 2.78418 10.752 7.04004 15.0088l97.7285 113.792
c6.62402 6.65527 18.3672 6.6875 25.0879 -0.0322266l11.4717 -11.4717c3.37598 -3.37598 5.21582 -7.80859 5.21582 -12.5605zM318.304 334.672c6.33594 -2.39941 9.58398 -9.50391 7.18457 -15.9043l-99.1523 -262.752
c-2.36816 -6.36719 -9.53613 -9.55176 -15.9355 -7.18359l-4.06445 1.56836c-6.36816 2.38379 -9.61621 9.55176 -7.18359 15.9033l99.0879 262.721c2.43164 6.39941 9.56738 9.63184 15.9355 7.21582z" />
    <glyph glyph-name="uniF126" unicode="&#xf126;" 
d="M306.592 245.568l-76.5439 -106.544l77.7285 -112.832h-65.4883l-47.2002 72l-48.1436 -72h-62.5439l77.8232 110.512l-76.1914 108.864h65.3115l45.6318 -68.3203l46.9287 68.3203h62.6875zM370.144 251.936v0l57.4727 -0.0478516v-24.4639h-100.4v21.1357
c7.66406 5.53613 15.3604 11.4248 23.0566 17.6641c7.69531 6.25684 13.8555 11.6328 18.4951 16.1602c6.94434 6.71973 11.8564 12.5439 14.7842 17.5361c2.92871 5.00781 4.36816 9.9043 4.36816 14.7842c0 5.87207 -1.8877 10.3516 -5.63184 13.5361
c-3.74414 3.15137 -9.16797 4.75195 -16.1924 4.75195c-5.26367 0 -10.7998 -1.05664 -16.6074 -3.24805c-5.83984 -2.19238 -11.2002 -4.97656 -16.1924 -8.33594h-2.75195v28.416c4.06445 1.77539 10.0645 3.55176 18 5.34375
c7.91992 1.74414 15.8564 2.62402 23.8242 2.62402c16.0322 0 28.2559 -3.34375 36.6562 -10.0957c8.43164 -6.7207 12.6553 -16.2246 12.6553 -28.5283c0 -8.04785 -2.03125 -15.7441 -6.06348 -23.0244c-4.03223 -7.2793 -10.1924 -14.7676 -18.4961 -22.4951
c-5.2002 -4.81641 -10.4482 -9.2168 -15.7119 -13.2803c-5.26465 -4.03223 -9.02441 -6.7998 -11.2646 -8.43262z" />
    <glyph glyph-name="uniF11D" unicode="&#xf11d;" 
d="M194.704 310.24l48.9121 -48.9121c4.51172 -4.54395 4.51172 -11.8242 0 -16.3203l-8.12793 -8.16016l-4.08008 4.04883c-6.76855 6.7998 -17.7285 6.7998 -24.4639 0c-6.76855 -6.73633 -6.73633 -17.6807 0 -24.4482l4.08008 -4.04785l-8.16016 -8.16016
c-4.49609 -4.5127 -11.8086 -4.5127 -16.3203 0l-48.9443 48.9277c-4.49609 4.51172 -4.49609 11.8076 0 16.3037l40.7686 40.7686c4.54395 4.51172 11.8242 4.51172 16.3359 0zM325.168 179.744l48.9922 -48.9277c4.49609 -4.52832 4.49609 -11.8408 0 -16.3359
l-40.8486 -40.7686c-4.49512 -4.51172 -11.7754 -4.51172 -16.2715 0l-48.9443 48.9443c-4.51172 4.54395 -4.51172 11.8076 0 16.3037l8.12793 8.17578l4.09668 -4.08008c6.7998 -6.75195 17.7275 -6.75195 24.4639 0c6.76758 6.76855 6.76758 17.6963 0 24.4639
l-4.0957 4.06445l8.19141 8.16016c4.52832 4.51172 11.792 4.51172 16.2881 0zM511.744 405.232v-426.448c0 -23.5684 -19.0879 -42.6562 -42.6562 -42.6562h-426.448c-23.5518 0 -42.6396 19.0879 -42.6396 42.6562v426.448c0 23.5518 19.0879 42.6396 42.6396 42.6396
h426.448c23.5684 0 42.6562 -19.0879 42.6562 -42.6396zM406.768 98.1924c13.5049 13.5039 13.5049 35.4395 -0.015625 48.9756l-65.2637 65.2637c-13.5039 13.4883 -35.4238 13.4883 -48.8965 0l-16.3682 -16.3359l-16.2881 16.3359l16.2881 16.2881
c13.5527 13.5361 13.5527 35.4238 0 48.9287l-65.2158 65.2637c-13.5039 13.5195 -35.4238 13.5195 -48.9277 0l-57.1045 -57.1045c-13.5352 -13.5195 -13.5352 -35.4072 0 -48.9277l65.248 -65.2637c13.5361 -13.5205 35.4248 -13.5205 48.9443 0l16.3359 16.3193
l16.3037 -16.3193l-16.3037 -16.2881c-13.5195 -13.5205 -13.5195 -35.4717 0 -48.9443l65.2002 -65.248c13.5361 -13.5518 35.4561 -13.5518 48.9922 0z" />
    <glyph glyph-name="uniF106" unicode="&#xf106;" 
d="M301.28 192l101.775 -101.824c6.28809 -6.25586 6.28809 -16.3682 0 -22.624l-22.624 -22.624c-6.25586 -6.25586 -16.3672 -6.25586 -22.624 0l-101.808 101.824l-101.84 -101.824c-6.25586 -6.25586 -16.3682 -6.25586 -22.624 0l-22.624 22.624
c-6.25586 6.25586 -6.25586 16.3682 0 22.624l101.84 101.824l-101.84 101.824c-6.25586 6.25586 -6.25586 16.3516 0 22.624l22.624 22.624c6.25586 6.25586 16.3994 6.25586 22.6562 0l101.808 -101.824l101.808 101.824c6.28809 6.25586 16.4004 6.25586 22.6562 0
l22.624 -22.624c6.25586 -6.27246 6.25586 -16.3682 0 -22.624z" />
  </font>
</defs>
</svg>
